<?xml version="1.0" standalone="no"?>
<!DOCTYPE svg PUBLIC "-//W3C//DTD SVG 1.1//EN" "http://www.w3.org/Graphics/SVG/1.1/DTD/svg11.dtd" >
<svg xmlns="http://www.w3.org/2000/svg" xmlns:xlink="http://www.w3.org/1999/xlink" version="1.1">
<metadata></metadata>
<defs>
<font id="sherwoodregular" horiz-adv-x="1228" >
<font-face units-per-em="2048" ascent="1638" descent="-410" />
<missing-glyph horiz-adv-x="737" />
<glyph horiz-adv-x="0" />
<glyph unicode="&#xd;" horiz-adv-x="737" />
<glyph unicode=" "  horiz-adv-x="737" />
<glyph unicode="&#x09;" horiz-adv-x="737" />
<glyph unicode="&#xa0;" horiz-adv-x="737" />
<glyph unicode="!" horiz-adv-x="534" d="M88 137q0 8 18 8q66 6 118 13.5t151 23.5q25 -12 44 -41.5t25 -56.5q12 -23 21.5 -41.5t15.5 -38.5h-10q-131 -14 -262 -29h-29q-12 2 -18 2q-49 86 -74 160zM119 362q0 152 15.5 474.5t15.5 480.5q72 14 143.5 25.5t134.5 11.5q6 0 10 -8q0 -240 -25.5 -484t-50.5 -481 q-53 -20 -107 -27.5t-130 -7.5q0 6 -6 16z" />
<glyph unicode="&#x22;" horiz-adv-x="825" d="M170 920q12 96 12 219q0 27 -1 58.5t-7 74.5q29 8 76 12t86 4q43 0 64.5 -4t35.5 -45q-33 -63 -49 -131t-27 -156q-33 -12 -77.5 -21t-104.5 -22zM498 920q12 96 12 219q0 27 -1 58.5t-7 74.5q29 8 76 12t86 4q43 0 64.5 -4t35.5 -45q-33 -63 -49.5 -131t-26.5 -156 q-33 -12 -78 -21t-104 -22z" />
<glyph unicode="#" horiz-adv-x="1204" d="M12 381q2 16 6 16q45 80 93 160l20 4q25 0 74 -4t74 -4l55 162l-232 -6l4 12q31 25 51.5 82t57.5 84q25 0 84 -6.5t94 -6.5q61 170 101.5 283t40.5 125q0 6 52 8t72 2h46l32 -12q-84 -186 -170 -408l244 5q61 166 101 278.5t40 126.5q0 6 52.5 8t72.5 2h45q16 -6 33 -12 q-82 -182 -166 -401q86 0 123 1t68 5q-2 -16 -6 -17q-31 -27 -48.5 -81t-44.5 -78l-20 -4l-135 6l-56 -160l220 6q-2 -6 -5 -12q-31 -25 -51 -82t-57 -84q-29 0 -87.5 5t-74.5 5l-133 -381q-45 -6 -98.5 -11t-94.5 -5l148 401l-242 -4l-131 -381q-45 -6 -98 -11t-94 -5 l145 395q-92 0 -131 -1t-74 -5zM453 549l239 -2l62 168l-242 4z" />
<glyph unicode="$" horiz-adv-x="1312" d="M72 358q0 -96 34 -170q55 -98 146 -131q90 -33 215 -32q-4 -2 12 4q-18 -176 -33 -279l283 51l2 242q57 2 109 12q55 12 96 41q106 43 178 158t72 248q0 166 -62 223q-63 57 -186 57q-47 0 -145 -10q-25 -4 -50 -6l5 268q12 -6 24 -10q35 -23 51 -53q16 -33 29 -82 q20 0 129 8q111 6 182 6q12 16 13 47q0 20 -11 58q-10 35 -32 86q-20 49 -107 92q-86 41 -186 41q-45 0 -90 -8l4 337l-230 -108q6 -127 8 -256q-129 -10 -219 -41q-139 -45 -184 -147q-43 -102 -43 -173q0 -88 35 -145q43 -82 115 -113t167 -30h70q14 2 47 6 q-10 -178 -24 -348q-33 14 -58 41q-31 45 -30 106q4 31 10 62q0 16 -10 28l-316 8q-2 0 -14 -14q-6 -39 -6 -74zM438 881q0 37 25 65q25 29 47 53q8 6 22 17q0 -121 -4 -244q-20 6 -32 12q-29 14 -43 41q-14 25 -15 56zM735 233l4 314l21 -4q39 -12 67 -41q25 -18 25 -86 q-18 -84 -80 -150q-19 -19 -37 -33z" />
<glyph unicode="%" horiz-adv-x="1953" d="M12 860q0 104 39 180q55 123 171 172.5t274 49.5q37 4 53 4q92 0 174 -38t130 -111t48 -185q0 -41 -8.5 -78t-22.5 -74q-39 -102 -135 -159.5t-215 -73.5q-86 -20 -160 -21q-92 0 -167.5 31t-126.5 102q-53 80 -54 201zM209 879q0 -35 13.5 -88.5t73.5 -101.5t99 -52 t60 -4q57 0 108 33.5t90 89.5q53 88 54 178q0 61 -29 106q-37 59 -79 87t-95 40q-16 2 -27 2q-115 0 -186 -90q-82 -82 -82 -200zM440 -8q0 12 4.5 18t62.5 84t145 221.5t225.5 386t205.5 355.5q27 53 50.5 106.5t37 90t17.5 40.5q127 10 254 23l33 -6q-80 -135 -257.5 -425 t-286 -480.5t-204.5 -389.5q0 -4 -8 -4t-8 -4q-14 0 -31.5 1t-24.5 1q-49 0 -105 -6t-110 -12zM1040 399q0 92 37 166q53 125 178 177.5t289 52.5q102 0 186.5 -28t128.5 -84t58 -108.5t14 -115.5q0 -100 -37 -180q-63 -123 -174.5 -158t-343.5 -66q-170 0 -237.5 91.5 t-83 142.5t-15.5 110zM1239 410q0 -37 11.5 -92.5t70.5 -102.5t121 -47q25 -6 47 -6q53 0 97 27.5t93 80.5q59 86 60 191q-1 53 -19 96q-27 57 -67.5 89t-100.5 54q-76 0 -134 -21.5t-105 -74.5q-74 -74 -74 -194z" />
<glyph unicode="&#x26;" horiz-adv-x="1343" d="M25 285q0 86 38 151q16 49 48 91t88 96q-4 25 -33 64.5t-35 57.5q-45 86 -45 201q0 63 17.5 120.5t79 134.5t184.5 77q35 0 65 -8q18 -8 32.5 -10.5t37.5 -2.5q45 2 69 3q27 0 99.5 -18.5t130.5 -127.5q29 -68 28 -156q0 -55 -10 -101t-37 -87q-31 -55 -80 -104.5 t-116 -100.5q-4 -27 19.5 -50t47.5 -46q18 -10 57.5 -43t71.5 -33q98 156 99 338v31v24q-4 18 -4 27q10 0 10 10q37 -4 53 -4q33 0 64.5 2t62.5 4q29 0 43 -2q8 -16 8 -45q-2 -37 -2 -55q0 -20 2 -31q0 -113 -32.5 -218t-96.5 -210v-16q157 -115 309 -242q-53 0 -176 -4 t-133 -4h-43q-43 0 -65.5 5t-44.5 30q-18 0 -52 -13.5t-45 -13.5q-31 -6 -80 -10t-86 -4q-57 0 -116 6q-68 -10 -129 -10q-84 0 -148.5 24.5t-101.5 87.5q-53 82 -53 185zM319 289q-6 -47 13.5 -85t62.5 -79q31 -18 68 -19q33 0 61 13q27 20 48.5 40t21.5 36 q-41 41 -101.5 89t-113.5 93q-8 6 2 -3t10 -12q-2 0 -4 1.5t-27 21.5q-41 -45 -41 -96zM340 983q0 -45 13.5 -94t27.5 -78t26.5 -41t24.5 -8q137 92 137 260q-6 68 -33.5 92.5t-78.5 36.5q-25 -10 -42.5 -18.5t-35.5 -26.5q-39 -51 -39 -123z" />
<glyph unicode="'" horiz-adv-x="563" d="M170 920q12 96 12 219q0 27 -1 58.5t-7 74.5q29 8 76 12t86 4q43 0 64.5 -4t35.5 -45q-33 -63 -49 -131t-27 -156q-33 -12 -77.5 -21t-104.5 -22z" />
<glyph unicode="(" horiz-adv-x="712" d="M16 397q0 143 35 250t105.5 234t180 222t228.5 161q47 23 97 45q-182 -193 -300 -426.5t-118 -485.5q0 -203 59 -342t179 -196.5t200 -96.5q-43 -35 -83 -57t-124 -63q-154 41 -276.5 180t-145 258t-30 183.5t-7.5 133.5z" />
<glyph unicode=")" horiz-adv-x="724" d="M20 1180q39 33 85.5 57.5t121.5 60.5q156 -39 276.5 -178t151.5 -299q31 -164 31 -280q0 -143 -34 -245.5t-104.5 -232t-184 -227.5t-226.5 -160q-49 -20 -96 -43q180 188 300 423t120 487q0 203 -59.5 343t-180.5 196.5t-201 97.5z" />
<glyph unicode="*" horiz-adv-x="788" d="M96 1153q16 6 72.5 10t56.5 8q-14 23 -35.5 41.5t-25.5 34.5q37 23 64.5 38t50.5 5q8 -2 25.5 -15t29.5 -9q8 18 10 55t6 53q25 -10 57.5 -36.5t41.5 -39.5q8 -20 16 -38q18 4 49 27.5t37 25.5q18 -4 30.5 -32t22.5 -38q4 -14 -13.5 -35.5t-17.5 -25.5q0 -8 13.5 -13.5 t48.5 -7.5t45.5 -34.5t28.5 -79.5q-51 -8 -85 -13.5t-36 -11.5q2 -10 29.5 -32.5t27.5 -41.5q-47 -23 -94 -45q-14 4 -48 21.5t-38 13.5v-86q0 -35 -2 -49q-55 25 -89 45t-34 78q-18 -10 -35 -19q-43 -31 -61 -39q-6 33 -14.5 61.5t-16.5 59.5q6 23 12 45q-10 10 -35 10 q-12 0 -28.5 1.5t-26.5 25.5q-18 29 -28.5 47.5t-10.5 34.5z" />
<glyph unicode="+" horiz-adv-x="1024" d="M55 522v15q18 27 27.5 103.5t34.5 107.5q137 -20 301 -21q0 152 -1 220.5t-5 129.5h18q14 -8 38 -13t44 -5h45q27 0 41 -2t35 -15q0 -8 3 -13t5 -5q-6 -59 -12 -147.5t-6 -147.5q137 0 220 4t148 10v-18q-20 -35 -24 -102.5t-23 -100.5q-8 0 -13 -3t-5 -5 q-61 6 -152.5 12t-152.5 6q0 -61 6 -188t6 -190h-15q-25 16 -59 16q-20 0 -58 -5t-44 -5q-37 0 -62 18q23 145 23 354q-84 0 -213 -5t-150 -5z" />
<glyph unicode="," horiz-adv-x="604" d="M63 -117q51 86 101.5 209t83.5 209q41 4 91 6t105 2q57 0 81 -3t28 -13q6 -31 -95.5 -180.5t-193.5 -229.5q-18 -2 -40.5 -2h-35.5q-25 0 -55.5 1t-69.5 1z" />
<glyph unicode="-" horiz-adv-x="712" d="M43 537l113 186q72 0 226.5 5t170.5 5q86 0 98 -2q9 -6 17 -12q-12 -33 -42 -79t-67 -101q-39 -2 -96 -3t-115 -1h-53h-47h-41h-33h-27h-63.5t-40.5 2z" />
<glyph unicode="." horiz-adv-x="532" d="M61 78q0 16 18.5 32.5t22.5 26.5q51 57 68.5 75.5t44.5 41.5q70 -31 119 -55.5t72.5 -35.5t37 -15.5t11.5 -16.5q-8 -10 -50.5 -67.5t-74.5 -83.5q-94 33 -147.5 50t-121.5 48z" />
<glyph unicode="/" horiz-adv-x="1064" d="M63 -8q80 190 186.5 404t277.5 543t175 343q6 8 129 24.5t148 16.5q6 0 13 -1t5 -5q-195 -322 -375 -649.5t-263 -495.5t-162.5 -174t-133.5 -6z" />
<glyph unicode="0" d="M27 588q0 113 34 241q35 131 148 250t242 144q55 6 110 14t92 25q35 14 62 18q29 4 55 4q117 0 219 -80t156 -207q53 -130 53 -292q0 -111 -22 -213q-25 -100 -91 -216q-66 -113 -188 -180q-125 -68 -276 -67q-51 -12 -84 -17q-33 -4 -80 -4q-94 0 -174 35 q-78 37 -136 121q-57 84 -88 194q-33 111 -32 230zM303 606q0 -94 31 -192t110 -164q78 -66 170 -66q160 33 222 146q59 115 75 186q16 72 17 148q0 129 -45 225q-43 98 -92 137t-99 55q-51 14 -80 15q-49 0 -94 -29q-45 -31 -96 -88q-119 -156 -119 -373z" />
<glyph unicode="1" d="M129 1098q618 168 715 176v-10q-41 -219 -56 -478q-12 -260 -12 -571q6 -8 12 -12q8 -2 21 -2q16 -6 33 -6h35q43 0 86 2q10 2 38 2q27 2 41 2q18 0 52 -4v-25q-12 -18 -19 -74q-6 -57 -24 -80q-186 0 -531 11q-340 8 -381 8q-6 12 -6 22t8 29q6 18 6 25q4 12 9 55 q4 43 28 65q78 -10 140 -18q59 -6 108 -6q33 0 33 24q0 168 10 474q8 307 8 340q-10 29 -28 34q-39 0 -152 -20q-113 -18 -164 -19q-6 2 -10 56z" />
<glyph unicode="2" d="M59 10l19 111q121 66 155 84q92 53 209 141q377 285 363 516q-4 58 -8 72q-61 188 -197 180q-86 -4 -145 -98q-33 -63 -33 -127q0 -70 18 -103q10 -20 -125 -65q-137 -43 -147 -10q-33 78 -29 151q6 156 111 252q170 160 420 160q293 0 401 -207q55 -106 55 -199 q0 -104 -47 -202q-45 -98 -110 -177q-63 -80 -115 -127q-49 -49 -190 -159q0 -6 8 -13q10 -6 18 -10q72 0 477 33q-23 -182 -39 -205q-23 -8 -51 -8h-96q-141 0 -344 4q-301 6 -399 8q-57 0 -179 -2z" />
<glyph unicode="3" horiz-adv-x="1226" d="M39 82v86q2 41 8 90q4 6 10 6q147 -57 279 -84q190 -39 315 25q109 55 111 145q2 88 -90 158q-63 47 -121 59q-61 12 -131 13q-68 0 -166 -15q-33 -6 -76 -16q-41 -10 -69 -14q-4 4 -5 8q2 4 5 8l503 502q0 16 -12 16q14 0 -121 0q-98 2 -172 0q-178 -4 -194 -4l-7 8 q39 104 78 193q4 8 15 8q123 0 559 -14q430 -16 430 -21q0 2 -215 -223q-221 -233 -277 -285q125 12 242 -43q137 -66 184 -207q4 -18 4 -65q0 -63 -24 -121q-27 -57 -105 -131q-78 -76 -221 -121t-307 -45q-104 0 -209 14q-104 16 -213 45q-8 8 -8 25z" />
<glyph unicode="4" d="M45 295v33q43 49 203 278q174 250 235 330q74 94 160 207q78 100 90 114q8 4 8 11q12 -2 150 4q145 6 149 6q59 0 60 -21q0 -23 -21 -92q-16 -53 -26 -133t-31 -237q-18 -158 -18 -297q-4 4 174 4q6 -4 0 -15l-91 -192l-6 -12h-69q-20 -39 -21 -68v-35v-35v-28v-27 q0 -68 0 -65q-4 -10 -147 -9q-139 2 -152 9q0 31 8 106q18 137 19 160q0 4 -674 4zM358 504q0 -8 9 -17q47 0 182 -4q131 -4 145 -4q6 6 15 13q25 547 20 552l-51 -79q-57 -88 -78 -117q-55 -72 -147 -203q-94 -131 -95 -141z" />
<glyph unicode="5" d="M117 68q16 88 16 170q0 2 10 14q193 -121 410 -84q96 16 156 68q61 53 61 131q0 156 -195 202q-104 25 -446 9q-4 0 61 700l789 4q72 0 123 -4q25 -2 -12 -131q-41 -131 -50 -119h-348q-188 4 -284 6l-50 -276q258 39 478 -31q121 -37 188 -127q66 -86 63 -194 q0 -111 -65 -205q-74 -102 -207 -160q-90 -39 -278 -39q-88 0 -156 6t-135 17q-70 8 -99 14q-25 4 -30 29z" />
<glyph unicode="6" d="M86 410q20 -197 162 -328q94 -86 346 -72q274 16 426 162q119 117 119 256q0 84 -31 154q-31 69 -82 112q-53 43 -98 56q-45 12 -105 12q-61 0 -121 -12q-25 -6 -204 -76q-2 2 6 39q10 49 33 100q72 162 245 287q39 31 179 102q121 61 122 68q0 14 -96 14q-100 2 -225 4 q-197 -37 -365 -180q-158 -137 -243 -326q-86 -193 -68 -372zM416 332q-25 119 10 172q33 49 133 67q96 16 160 -16q88 -43 92 -172q4 -125 -70 -178q-33 -25 -106 -39q-56 -13 -113 18q-82 41 -106 148z" />
<glyph unicode="7" horiz-adv-x="1226" d="M31 8q285 377 469 746q137 272 131 299q-4 10 -8 18q-10 0 -105 2q-80 4 -166 2q-217 -6 -229 -6v18q45 98 88 195q0 4 10 8q70 -6 187 -10q115 -2 235 -2h250q125 2 270 4h27l-4 -8q-2 -6 -4 -8q-205 -250 -758 -1256q-18 -14 -47 -14q-14 0 -39 2l-27 4h-239q0 2 -23 4 q-20 0 -18 2z" />
<glyph unicode="8" horiz-adv-x="1232" d="M49 264v25q6 127 90 196q25 20 60 37q33 14 32 17q-10 16 -43 47q-31 31 -67 86q-39 53 -39 184q0 102 45 193q43 92 145 155q100 63 222 78h303q111 0 204 -43q92 -43 142 -133q35 -65 35 -143q0 -68 -23 -129q-23 -63 -55 -107q-33 -45 -84 -78q-53 -35 -68 -45 q-16 -12 -16 -22q63 -53 102 -113q37 -61 37 -133q0 -27 -12 -82q-10 -55 -76 -127q-66 -70 -125 -92q-59 -23 -108 -29q-45 -6 -95 -6q-63 0 -178 8q-117 8 -129 8q-100 12 -186 68q-82 57 -96 111q-16 55 -17 69zM340 293q0 -31 12 -66q8 -23 58 -57q53 -39 96 -41 q41 -2 112 29q63 27 89 51q37 51 36 108q0 27 -8 45q-10 36 -47 56q-39 20 -86 28q-45 0 -84 5q-49 0 -86 -13q-39 -12 -67 -45q-25 -43 -25 -100zM397 893q0 -55 29 -113q31 -57 94 -86q63 -31 142 -30q59 8 110 57t84 115q12 37 14 57q2 23 2 55q0 33 -6 62q-8 29 -57 90 q-51 63 -145 63q-74 -14 -138 -47q-59 -35 -90 -96q-39 -59 -39 -127z" />
<glyph unicode="9" d="M66 53q-2 -14 98 -22q106 -10 229 -23q205 20 389 152q176 125 277 307q106 186 102 373q-4 199 -137 342q-90 94 -350 100q-285 6 -451 -129q-131 -106 -143 -248q-8 -84 18 -155q25 -74 76 -121q49 -47 94 -64q45 -16 105 -20q63 -6 125 2q27 4 219 57q4 -2 -8 -39 q-14 -47 -43 -96q-90 -158 -277 -270q-45 -27 -192 -86q-129 -55 -131 -60zM375 920q6 125 88 172q37 23 117 30q57 7 116 -26q82 -49 99 -160q16 -121 -27 -172q-37 -45 -145 -55q-100 -10 -166 28q-90 51 -82 183z" />
<glyph unicode=":" horiz-adv-x="671" d="M49 119q0 16 19.5 31.5t23.5 27.5q53 63 113 119q37 -18 139 -72.5t110.5 -57.5t21.5 -8.5t11 -17.5q-39 -53 -68.5 -90t-60.5 -61q-147 55 -309 129zM145 678q4 10 5 18q35 27 99 89.5t85 78.5q78 -33 148 -67.5t136 -69.5q2 -2 -2 -14q-78 -72 -155 -142q-4 -2 -25 0 q-47 23 -145 55.5t-146 51.5z" />
<glyph unicode=";" horiz-adv-x="681" d="M35 -119q154 236 309 471q39 6 101.5 8t117.5 2q8 -10 0 -20q-80 -156 -132 -227.5t-117.5 -152.5t-75.5 -81q-37 0 -108 -5t-89 -5zM164 643v8q47 29 115.5 61.5t78.5 37.5l29 -5q39 -23 140.5 -69.5t115.5 -54.5q2 -2 -8 -13l-166 -108q-14 0 -18.5 1t-6.5 5 q-51 29 -155.5 78t-124.5 59z" />
<glyph unicode="&#x3c;" horiz-adv-x="1546" d="M59 655q4 16 2 23.5t221.5 119t484.5 244t435 230.5q12 2 17 -2q10 -47 64 -128t97 -114l9 -18q-190 -72 -368.5 -158t-336.5 -184q-6 -4 -5 -8.5t195.5 -117t557.5 -261.5q4 -7 8 -13q-61 -43 -76.5 -60.5t-36 -51t-42 -75.5t-40.5 -61q-190 113 -369.5 211.5 t-356.5 188.5t-460 235z" />
<glyph unicode="=" horiz-adv-x="1024" d="M49 313v19q20 35 24.5 102.5t22.5 100.5q10 0 19 8q92 -8 168.5 -11.5t201.5 -3.5q123 0 310.5 3.5t189.5 3.5q4 -3 0 -15q-18 -27 -27.5 -103.5t-33.5 -107.5q-68 10 -163 14.5t-200 4.5q-141 0 -267 -5.5t-245 -9.5zM55 731q-4 2 0 14q18 27 27.5 104t34.5 107 q68 -10 163 -14t199 -4q139 0 284.5 5t227.5 9v-18q-20 -35 -24 -102.5t-23 -100.5q-10 0 -18 -8q-92 10 -169 12t-202 2q-123 0 -310.5 -3t-189.5 -3z" />
<glyph unicode="&#x3e;" horiz-adv-x="1546" d="M88 268q-2 6 1 8.5t99.5 42t280.5 132t282.5 149.5t98.5 62l-6 6q-313 193 -705 342l8 18q43 33 97.5 114t64.5 128q4 4 17 2q154 -86 423 -223.5t494 -250t223 -116.5q4 -17 2 -27q-211 -106 -406.5 -206.5t-379.5 -201t-399 -227.5q-18 18 -40 60.5t-40.5 73t-39 52 t-75.5 62.5z" />
<glyph unicode="?" horiz-adv-x="819" d="M70 80v8l276 164q86 -18 185.5 -44t148.5 -40l6 -4q-100 -98 -227 -182q-100 20 -187.5 42.5t-201.5 55.5zM109 444q0 96 50 176t81.5 122t88 113t56.5 132q0 29 -12 60q-31 29 -76 28q-31 0 -75 -15.5t-81 -27.5q-14 20 -21 66.5t-11 56.5l8 14q100 76 205.5 120 t222.5 44q66 -27 84 -36t57 -56t39 -125q0 -33 -16.5 -71.5t-62.5 -89t-89 -95.5l-18 -8q-31 -49 -64 -104.5t-33 -100.5q0 -41 23 -78q35 -37 92 -37l35 5q35 4 72.5 23.5t72.5 37.5q8 -27 8 -70q0 -16 -2 -33.5t-2 -25.5q-141 -92 -232 -127t-167 -35q-100 0 -180 58 q-18 18 -32.5 37.5t-20.5 41.5z" />
<glyph unicode="@" horiz-adv-x="1523" d="M20 721q0 322 217.5 537t544.5 215q301 0 499 -177.5t198 -445.5q0 -184 -92.5 -325.5t-216 -187.5t-169.5 -46q-51 0 -79.5 28.5t-28.5 79.5v15q-88 -113 -225 -113q-141 0 -227.5 96.5t-86.5 255.5q0 197 113 326t283 129q176 0 251 -156l25 127h121l-107 -571l-10 -74 q0 -39 43 -39q31 0 77 27t104.5 80t97.5 143t39 184q0 240 -170 393.5t-433 153.5q-274 0 -461.5 -187.5t-187.5 -465.5q0 -279 189.5 -466t468.5 -187q154 0 258 55t211 162h123q-74 -92 -114 -130t-99 -75q-74 -51 -175.5 -78t-212.5 -27q-332 0 -550 210t-218 534z M500 664q0 -106 57 -172t152 -66q111 0 177 93t66 245q0 98 -50 152.5t-140 54.5q-111 0 -186.5 -88t-75.5 -219z" />
<glyph unicode="A" d="M10 12q133 293 240.5 564.5t210.5 572.5q1 6 1 13q0 30 -22 65q-26 43 -32 59q0 4 5 5t5 5q102 0 204.5 -4t174.5 -6q12 0 14 -2t52 -195.5t166 -502.5t286 -594l-8 -6q-98 0 -190.5 2t-184.5 4q-16 33 -32.5 115.5t-31.5 117.5q-31 109 -37 125.5t-32 42.5 q-39 6 -104.5 8t-73.5 2q-51 0 -102.5 -1t-100.5 -1q-20 0 -31.5 -18t-37 -108.5t-75.5 -262.5q0 -6 -8 -10h-248q-4 6 -4 8t-4 2zM471 588q0 -27 8 -27q72 -14 148 -14q49 0 102 6q12 6 17 17.5t-1 17.5q-14 55 -26 91t-52 143.5t-44 109.5q-2 -6 -11 -6 q-29 -51 -50 -101.5t-91 -236.5z" />
<glyph unicode="B" horiz-adv-x="1239" d="M78 -12q6 35 19.5 84t20.5 112.5t12 180t5 272.5q0 86 -2 258t-2 256q-18 68 -37 135q0 4 8 8q59 0 119 -1t121 -1q115 0 213 4t184 17q119 0 227.5 -36t149.5 -97q43 -76 43 -174q0 -92 -43 -160q-18 -45 -62 -86t-102 -74q-12 -14 0 -29q66 -29 121.5 -83.5 t69.5 -120.5q14 -51 14 -115q0 -158 -96 -252q-57 -66 -143.5 -93.5t-190.5 -27.5q-45 0 -98.5 3t-114.5 12q-78 0 -247 4t-189 4zM434 453q0 -98 5 -175t22 -147q10 -18 29.5 -26.5t76.5 -8.5q88 0 161.5 41t100.5 117q12 41 13 80q0 74 -34 122t-129 86t-181 38 q-14 2 -23 2q-25 0 -41 -21v-108zM434 723q0 -6 9.5 -12t9.5 -9q37 -4 55 -4q92 0 171 39t122 105.5t43 142.5q0 53 -23 92q-27 47 -99.5 75t-154.5 28q-43 -12 -62.5 -23.5t-25.5 -42.5q-20 -59 -32.5 -145t-12.5 -246z" />
<glyph unicode="C" horiz-adv-x="1585" d="M80 598q0 115 32.5 225.5t94.5 196.5q226 278 597 278h3q92 12 158.5 19.5t119.5 7.5q41 0 112 -9t221.5 -93.5t150.5 -102.5t-25 -24q-125 -53 -250 -105h-24q-86 94 -194.5 146.5t-231.5 52.5q-141 -23 -256 -121t-157 -218t-42 -228q0 -115 40 -217.5t120 -178.5 q66 -57 142.5 -91t158.5 -34q47 0 218 43t431 197q-25 -119 -49 -205q-27 -82 -39 -123q-14 -4 -14 -8q-88 -12 -180.5 -16t-198.5 -4h-29h-24q-39 0 -78 1t-76 1h-23q-27 -4 -56.5 -4h-45.5q-168 0 -297 57t-219 201.5t-90 355.5z" />
<glyph unicode="D" horiz-adv-x="1536" d="M57 -8q8 31 37 93t36 124.5t12 179.5t5 287v39v35v30v27v22q0 35 -1 70t-1 72v20q0 150 -57 273q-2 20 6 20q115 0 228.5 -2t228.5 -4h37q141 0 270 14h82q158 0 257 -42.5t179 -200.5t80 -349q0 -145 -49 -281t-145 -237q-86 -98 -201 -142t-231.5 -53.5t-313.5 -9.5 q-82 0 -243.5 7.5t-215.5 7.5zM424 371q0 -47 2 -96.5t8 -96.5q10 -20 25.5 -34.5t58.5 -33t111 -18.5q98 0 190 52.5t178 140.5q70 84 111 189.5t41 215.5q0 47 -8.5 96.5t-26.5 94.5q-53 141 -138 198.5t-163 73.5t-100 16q-43 0 -108.5 -28.5t-99.5 -42t-44 -81 t-19 -130.5q0 -109 -9 -303.5t-9 -212.5z" />
<glyph unicode="E" horiz-adv-x="1052" d="M109 1298l8 9q84 0 277.5 -10.5t262.5 -10.5q100 0 160 5t108 14.5t62 13.5q8 0 8 -10t-8 -39q-12 -31 -30.5 -100.5t-22.5 -82.5q-10 -4 -21 -8q-80 0 -257 4t-193 4q-18 -14 -23 -24q-4 -27 -6 -64.5t-2 -74.5q0 -31 2 -92.5t2 -90.5q2 -6 17 -12q49 -8 91 -10t101 -2 q86 0 154.5 6t161.5 18q0 -45 -7.5 -113.5t-11.5 -103.5q-12 -4 -22 -8q-57 0 -189.5 10.5t-179.5 10.5q-49 0 -102 -7q-18 -14 -19 -16q-2 -16 -2 -35.5v-29.5q0 -35 4 -107t4 -109q0 -41 29 -40q92 -12 194 -13q76 0 148 8.5t131 28.5q16 0 16 -22v-23q4 -27 4 -50.5 v-45.5v-35q0 -18 -1 -33.5t-3 -27.5q-74 0 -229.5 6t-237.5 6l-368 -4q-4 6 -6 8q23 145 30 299t7 352v43v39v33v29v26q0 39 -1.5 78t-1.5 80v22q0 78 -14 161t-24 140z" />
<glyph unicode="F" horiz-adv-x="1040" d="M96 8q20 156 30.5 328t12.5 379t2 399q-12 94 -37 195l17 4q84 0 260 -6.5t264 -6.5t165 4.5t146 16.5q6 0 17.5 13.5t13.5 13.5q4 0 5 -7.5t-3 -27.5q-18 -111 -37 -221q-10 -6 -12 -11q-121 0 -298 3t-181 3l-19 -16q0 -35 -7 -132t-7 -144q0 -45 6 -88l17 -13h129 q135 0 210.5 5.5t161.5 29.5q2 -2 13 -4q0 -61 -9.5 -127t-15.5 -102q-12 -4 -25 -7q-80 0 -206.5 5.5t-145.5 5.5h-55.5t-61.5 -4q-6 -8 -12 -17v-240.5t2 -240.5l-8 -8q-53 0 -161.5 2t-162.5 2q0 10 -8 14z" />
<glyph unicode="G" horiz-adv-x="1701" d="M82 598q0 203 99.5 372t281.5 236q92 43 196.5 58.5t233.5 15.5q133 27 272 27q137 0 235.5 -27t140.5 -77t74 -91t38 -84q-10 -8 -11 -12q-115 -12 -195.5 -19.5t-141.5 -7.5q-27 51 -72 96t-96 54q-51 14 -110.5 25.5t-111.5 11.5q-82 0 -143 -31 q-119 -37 -223.5 -139.5t-129 -206t-24.5 -183.5q0 -131 54.5 -243.5t160.5 -190.5q66 -33 131 -65q76 -33 144 -33h41q20 6 80.5 18.5t142.5 65.5t102 149q12 35 17.5 76t5.5 92q0 23 -2 70t-2 68q31 4 85 4t87 2h131q2 -2 6 -3t8 -3q0 -66 -21.5 -195t-21.5 -182t9.5 -94 t23.5 -68t30.5 -57.5t20.5 -44.5q-10 0 -13 -2.5t-3 -4.5q-125 20 -262 21q-80 0 -260.5 -10.5t-239.5 -10.5q-80 -12 -166 -12q-152 0 -293 54.5t-225 220t-84 360.5z" />
<glyph unicode="H" horiz-adv-x="1495" d="M98 0q20 150 29.5 315.5t9.5 346.5q0 76 -2 230.5t-2 231.5q-10 82 -18 164q31 2 82 2h79h115t84 -2q-53 -184 -53 -387q-4 -29 -5 -45t-1 -37q0 -25 5 -40t23 -15q72 0 235 -4t173 -4h25h110q47 6 68 8q14 12 14 16v64q0 176 -7 263t-40 181h381l10 -2 q-33 -100 -46 -209.5t-13 -240.5q0 -102 -2 -205t-4 -205q0 -98 4 -181t13 -137.5t19.5 -80t14.5 -39.5l-10 -4q-57 0 -176 2t-177 2q-18 10 -10 43q20 129 31.5 252t11.5 243q0 31 -27 31q-102 0 -307 2t-309 2q-4 -8 -9 -12t-7 -6q0 -59 4 -201.5t4 -151.5q0 -6 -11.5 -16 t-5.5 -18q12 -8 21 -9q0 -25 8 -76t8 -77q-82 -2 -182 -2h-152z" />
<glyph unicode="I" horiz-adv-x="563" d="M96 2q45 336 45 721q0 94 -14 278.5t-14 266.5q0 10 5 12t5 6h323l11 -8q-18 -145 -26.5 -298t-8.5 -316q0 -330 35 -662l-11 -10h-342q-8 0 -8 10z" />
<glyph unicode="J" horiz-adv-x="829" d="M-55 -193q8 55 17 85t36 98q18 0 57 -24.5t60 -24.5q14 0 28 8q158 133 203 333.5t45 493.5v154q0 63 -17.5 192t-17.5 172q43 6 107 6q84 0 145.5 -4t114.5 -10q0 -2 -11.5 -74.5t-11.5 -97.5q0 -172 -12 -502.5t-12 -386.5q-31 -164 -181.5 -275.5t-328.5 -142.5 q-47 -4 -82 -7t-55 -3q-51 0 -84 10z" />
<glyph unicode="K" horiz-adv-x="1327" d="M111 1284l6 2h325l9 -6q-35 -242 -35 -516q6 -18 26 -4q143 121 319.5 287.5t250.5 236.5h309v-8q-307 -266 -627 -569q-12 -14 11 -52q92 -109 190 -218t190.5 -207.5t229.5 -241.5q-39 0 -119 -2t-123 -2q-80 0 -143 8q-94 109 -179 206t-153 169.5t-162 160.5 q-6 -2 -11 -4t-5 -8q0 -80 15.5 -266.5t15.5 -257.5q-4 -2 -6.5 -4t-2.5 -4q-53 0 -157.5 -4.5t-151.5 -4.5l-10 19q0 156 7 430t7 352q0 168 -5 268.5t-21 239.5z" />
<glyph unicode="L" horiz-adv-x="1019" d="M94 1280l8 2h96.5t108.5 2q84 0 115 -2q25 -8 49 -14q-25 -113 -36 -253.5t-11 -273.5q0 -88 4 -291.5t4 -216.5q6 -29 16.5 -47t30.5 -26q127 0 236.5 14t265.5 43q8 -14 0 -22l-80 -187q-14 -14 -16 -14q-172 0 -446.5 5t-311.5 5l-6 8q10 92 14 197.5t4 210.5 q0 170 -6 426t-6 258q-4 33 -11 71.5t-22 104.5z" />
<glyph unicode="M" horiz-adv-x="1904" d="M74 1296q2 8 2 13q74 -6 186 -6h180t47 -3q8 -14 68.5 -140t113 -233.5t127 -252t167.5 -309.5q8 -6 13 -9.5t9 2.5q68 127 138.5 270.5t155.5 321.5t159 334q6 8 10 12q98 0 194.5 -2t194.5 -4q-6 -33 -24.5 -85t-25.5 -117.5t-11 -189.5t-4 -263v-199.5t2 -199.5 q0 -63 17 -121.5t50 -126.5h-356l-62 2q41 82 59.5 182t18.5 217q0 72 -8 217.5t-8 212.5q-2 6 -3 12.5t-7 8.5l-27 -21q-66 -127 -154 -309t-166 -346q-6 -18 -6 -37q0 -29 18.5 -73t20.5 -58l-8 -6q-84 0 -165 2t-161 4q-33 51 -77.5 147.5t-111.5 234.5t-120 242.5 t-121 217.5q-6 2 -12 -3.5t-10 -9.5q0 -123 -2 -362.5t-2 -364.5q0 -14 8 -44.5t8 -49.5h-305q27 106 38 228t11 260q0 72 4 242.5t4 183.5v32q0 111 -12 219q-6 27 -28.5 73t-26.5 54z" />
<glyph unicode="N" horiz-adv-x="1587" d="M29 1292h325q6 2 13.5 2h9.5q31 0 53.5 -13t34.5 -31.5t24 -35.5l703 -862v643q0 53 -4 88t-8 69t-10.5 65.5t-16.5 74.5h397q-49 -43 -70.5 -95t-27.5 -92t-6 -81v-731q0 -45 1 -85t17 -89q29 -74 90 -127l-426 2l-733 880v-679q0 -18 1 -38t16 -63l20 -102h-371 q29 41 43.5 72.5t25.5 71.5t13 71t2 86v663v27q0 63 -3 88t-18 70t-24.5 60.5t-70.5 90.5z" />
<glyph unicode="O" horiz-adv-x="1771" d="M74 580q0 123 48 261t203.5 265t333.5 154q123 12 179.5 20t102.5 22.5t84 18.5t75 4q164 0 304 -83t212 -220q37 -68 55.5 -151t18.5 -164q0 -115 -33 -223.5t-121 -229.5t-261 -193.5t-382 -72.5q-117 -27 -227 -27q-129 0 -239 39t-187.5 127t-121.5 207t-44 246z M391 598q0 -104 48 -222t171 -197t271 -79q250 35 368.5 206t118.5 358q0 153 -70 266q-68 115 -143.5 161t-154 65.5t-123.5 19.5q-78 0 -146.5 -35t-152.5 -103q-88 -88 -137.5 -202.5t-49.5 -237.5z" />
<glyph unicode="P" horiz-adv-x="1280" d="M72 1290l8 8h94q279 0 396.5 7.5t256.5 27.5q145 0 210 -42t106 -120q45 -90 45 -200q0 -156 -86 -265.5t-208 -160.5t-261 -51q-43 0 -93.5 6t-95.5 16q-27 0 -26 -18q0 -96 5 -178t32 -316l-11 -4q-78 0 -200.5 -3t-126.5 -3q-6 8 -4 10q18 115 25 232.5t7 261.5 q0 106 -2 213.5t-4 216.5q0 197 -67 362zM416 714.5q0 -30.5 2 -61.5q0 -25 18.5 -28.5t30.5 -3.5h25q166 0 274 114.5t108 255.5q0 65 -30 129q-27 53 -66 79t-84 26q-27 0 -50 -6.5t-93 -39t-102.5 -137t-32.5 -266.5v-61.5z" />
<glyph unicode="Q" horiz-adv-x="1802" d="M88 582q0 106 27.5 203.5t85.5 172.5q98 143 246.5 220t328.5 94q90 16 167 25.5t155 9.5q94 0 160.5 -13.5t136.5 -50.5q104 -45 142 -72.5t112.5 -156.5t74.5 -303q0 -213 -80.5 -339t-170 -200t-195.5 -127q-8 -2 -12 -5t0 -9q158 -123 205 -157t128 -67 q41 -20 85.5 -28t93.5 -8q43 0 91 7t99 19q2 -10 2 -28q0 -16 -6 -43t-12 -60l-4 -10q-109 0 -328 2t-326 2q-121 0 -216 84t-160 211q-72 -8 -124.5 -12t-99.5 -4h-30h-25q-16 4 -25 4q-145 0 -274 99t-190.5 240.5t-61.5 299.5zM397 621q0 -82 38 -189.5t165 -204 t279 -129.5q143 16 265 90t195.5 200t73.5 284q0 143 -63 252q-63 113 -164 172t-223 73q-16 4 -38 6.5t-40 2.5q-82 0 -156 -40t-166 -114q-78 -84 -122 -189.5t-44 -213.5z" />
<glyph unicode="R" horiz-adv-x="1361" d="M66 1282v14q90 0 182 -2t186 -4q125 0 195.5 5t167.5 24q68 0 160 -20.5t108 -33t31.5 -30.5t27.5 -27q29 -37 44.5 -86t15.5 -108q0 -76 -27 -131q-29 -72 -95.5 -136.5t-150.5 -117.5q2 -14 38 -47t154 -217.5t150 -219.5q20 -16 60.5 -41.5t109.5 -64.5v-12 q-37 -14 -90 -21.5t-155 -7.5h-103q-123 16 -199.5 168.5t-115.5 193.5q-45 84 -116 141.5t-157 57.5q-18 0 -31.5 -3t-21.5 -11t-8 -35q0 -43 -2 -51q0 -113 8 -228.5t27 -228.5l-8 -8h-347l-10 8q27 109 38 233.5t11 266.5q0 80 -4 267t-4 200q0 106 -12 179t-57 134z M422 887q0 -33 4 -114t4 -85l4 -16q41 -6 76 -6q88 0 164 33.5t131 103.5q55 86 55 186q0 49 -22 96q-25 47 -78 76t-115 29q-61 0 -117.5 -38t-81 -107.5t-24.5 -157.5z" />
<glyph unicode="S" horiz-adv-x="1351" d="M68 221q0 94 51 164q119 12 199.5 20.5t144.5 24.5q-4 -29 -22.5 -74t-23.5 -65.5t-5 -40.5q0 -68 56 -113t136 -45q12 0 76.5 13.5t147.5 96.5t94.5 148.5t11.5 95.5q0 41 -15.5 75t-44 48.5t-48 16.5t-48.5 2q-37 0 -55 4q-31 0 -97.5 -2t-101.5 -2q-147 0 -244.5 31.5 t-160.5 134.5q-31 59 -31 137q0 76 29.5 150.5t91 149.5t158 106.5t211.5 31.5q37 0 79.5 -4t68.5 -7t42 -4t29 -1q45 0 90 2l90 4q78 0 133 -17.5t94 -66.5q29 -43 44.5 -89t15.5 -93q0 -14 -3.5 -32t-5.5 -28l-10 -8q-57 8 -84.5 9t-42.5 1q-111 0 -219 -32q-4 4 -5 12 t-1 14v41t2 41q0 37 -9 59.5t-34 38t-53.5 21.5t-53.5 6q-57 0 -119.5 -22.5t-113.5 -57.5q-43 -37 -67.5 -80t-24.5 -94q0 -20 2 -31q0 -23 16.5 -43t42.5 -39q45 -23 96.5 -30.5t106.5 -7.5q63 0 193.5 12t148.5 12q72 -12 130 -57t89 -113q29 -86 29 -168 q0 -233 -128 -339.5t-222.5 -135.5t-208.5 -29q-72 0 -160 11q-33 0 -111.5 -4.5t-87.5 -4.5q-96 0 -162.5 26t-96 92.5t-29.5 127.5z" />
<glyph unicode="T" horiz-adv-x="1386" d="M45 1059q-6 14 0 31q33 111 68 221q109 0 336 -6.5t342 -6.5q217 0 407 21q16 -4 40 -1t46 7q37 0 33 -33q-4 -59 -7 -98t-14 -80l-10 -8h-101t-102 2q-49 0 -100 -2t-77.5 -6t-30 -9.5t-19.5 -146.5t-16 -436q0 -266 30 -516h-350l-4 10q0 104 7 323.5t7 303.5 q0 141 -7 241.5t-27 219.5q-8 12 -17 16q-133 0 -236.5 -9.5t-197.5 -37.5z" />
<glyph unicode="U" horiz-adv-x="1515" d="M84 1288l8 4q94 0 188.5 2t186.5 4l6 -10q-20 -102 -29.5 -236t-9.5 -274q0 -66 2 -199t2 -198q12 -86 46 -150.5t106 -85.5q41 -8 92 -8q170 0 263 108.5t124 242t31 311.5q0 63 -4 207.5t-4 146.5q0 27 -9.5 78t-9.5 59q84 0 170 2t174 4l6 -22q-25 -102 -35 -225 t-10 -244q0 -109 11.5 -359.5t11.5 -322.5q17 -58 33 -115l-336 -20q-6 10 -6 37v30q0 29 -11 45q-29 0 -90 -18.5t-77.5 -20.5t-197.5 -52t-286 -50q-137 0 -223 88q-25 29 -40 73t-22 93q0 195 -3 332t-6 332.5t-3 267.5q-10 23 -24.5 69t-24.5 74z" />
<glyph unicode="V" horiz-adv-x="1368" d="M6 1292h391l285 -899l285 733q14 45 20 88l10 78h353q-55 -113 -104.5 -218t-125.5 -266t-136 -288t-101 -293q-18 -43 -26.5 -71.5t-8.5 -63.5t13 -59.5t44 -52.5h-424q0 23 -3 46t-8 56t-8 55.5t-11 48.5l-301 879q-10 37 -22.5 59.5t-39.5 63.5q-20 37 -36.5 56.5 t-45.5 47.5z" />
<glyph unicode="W" horiz-adv-x="2445" d="M14 1286q33 4 73 6t122 2h47q80 0 147 9q12 -4 14.5 -27t10.5 -33q84 -379 242 -811q10 -18 22 0q31 66 163 367t149.5 339t21.5 89t12 71h353q16 -8 19 -38.5t24.5 -104.5t73 -219t104.5 -272t133 -306q12 0 17 9.5t12 17.5l346 907q8 6 26 6h88t99 2q84 0 96 -2l16 -12 q-23 -33 -89 -144.5t-111 -218t-107.5 -258t-98.5 -243.5t-91 -252q-8 -16 -9 -39q0 -27 19.5 -72t21.5 -51q-92 0 -238.5 -5t-185.5 -5q-12 20 -30.5 83.5t-56 162t-116.5 301.5t-165 373q-4 14 -17.5 5.5t-13.5 -14.5q-102 -219 -136 -292.5t-76 -171t-79 -186.5 t-44 -144.5t-13 -106.5l-10 -10h-330q-8 23 -17.5 75t-19.5 111q-55 197 -129 413t-125 353t-88 207q-51 88 -76 129z" />
<glyph unicode="X" horiz-adv-x="1392" d="M-10 -6q-6 4 0 14q154 150 219 216.5t158.5 170t173.5 207.5q-70 119 -137.5 218.5t-156.5 218t-194 247.5q8 2 17 4q98 0 198.5 2t200.5 4q41 -61 125 -214.5t129 -225.5q12 0 59 65.5t116 167t126 201.5q31 4 67.5 4h57.5q41 0 82 -1t82 -1q20 4 37 4q24 0 24 -10 q0 -8 -6 -14t-137 -163t-373 -474q6 -18 6 -27q82 -139 188.5 -294.5t229.5 -319.5h-303q-6 2 -23 2q-39 -4 -57 -4q-23 0 -38 6t-15 39q-59 125 -119 252q-16 12 -30.5 45t-32.5 43l-19 -8q-94 -125 -162.5 -214t-140.5 -163z" />
<glyph unicode="Y" horiz-adv-x="1275" d="M4 1294h199.5h140.5q145 -311 291 -622q16 -10 18 -10q14 20 105.5 185t220.5 447h285q0 -4 2 -8q-8 -18 -51.5 -79.5t-124 -204t-131 -244t-150.5 -322.5q-16 -29 -22.5 -63.5t-6.5 -77.5q0 -31 4 -86t4 -80q8 -20 11.5 -70.5t3.5 -52.5q-78 -6 -156 -6h-22h-71t-71 2 h-18l-8 8q0 41 4 121t4 121q0 61 -5 99t-22 89q-80 201 -183 401.5t-226 399.5q0 10 -16.5 25.5t-8.5 27.5z" />
<glyph unicode="Z" horiz-adv-x="1406" d="M37 -8q174 223 307 400t240.5 333t224.5 356q0 25 -10 29q-96 0 -335 -22.5t-341 -22.5q-6 10 0 16l143 211q86 0 256 -6t258 -6t299 15.5t289 15.5q4 -5 0 -15q-47 -66 -245.5 -328.5t-301 -414.5t-194.5 -334q-6 -25 22 -24q113 0 369 20.5t344 20.5q4 -14 0 -17 q-59 -115 -117 -227l-20 -8q-197 0 -393.5 1l-393 2t-391.5 1q-6 0 -10 4z" />
<glyph unicode="[" horiz-adv-x="704" d="M109 1495l8 8q86 0 157.5 -7t149.5 -13q49 0 82 4t84 14t65 15q8 0 8 -10.5t-8 -39.5q-12 -31 -30.5 -100.5t-22.5 -81.5l-20 -8h-54.5t-23.5 4q-2 2 -14.5 3t-63.5 1q-18 -14 -23 -24q-4 -27 -6 -195t-2 -395q0 -207 1 -416t3 -420q0 -41 29 -41q31 -4 53.5 -7t34.5 -5 q12 6 34.5 16t55.5 21q16 0 17 -23v-22q4 -27 4 -49.5v-47.5v-34q0 -18 -1 -34t-3 -28q-74 0 -82.5 6t-89.5 6l-332 -4l-6 9q16 104 23 271t10.5 361.5t3.5 452.5v76v65v56v47v39v32v29v23q0 47 -1.5 83.5t-1.5 61.5q0 78 -14 161t-24 140z" />
<glyph unicode="\" horiz-adv-x="1064" d="M59 1317q2 2 7.5 4t13.5 2q53 0 160.5 -16.5t113.5 -24.5q6 -20 175 -345t278.5 -546t185.5 -399q-51 0 -132 6t-249 345t-553 974z" />
<glyph unicode="]" horiz-adv-x="704" d="M37 1505q0 10 12 8t23 -4q37 -8 100.5 -17t103.5 -9q23 0 132.5 10t175.5 10l8 -8q-12 -76 -25.5 -158t-13.5 -143l-2 -569q0 -262 3 -444.5t10 -329t24 -254.5q-2 -2 -4 -4.5t-2 -4.5l-332 4q-82 0 -90 -6t-82 -6q-2 25 -3 53.5t-1 42.5t2 46t2 51v22q0 23 16 23 q43 -14 66.5 -25.5t25.5 -11.5l86 12q29 0 29 41q0 113 2 483.5t2 473.5v86v71v60v47v39v30v25q0 88 -6 104.5t-25 30.5h-54t-23 -4q-6 -2 -26.5 -3t-51.5 -1q-12 8 -21 8q-14 59 -25.5 101t-23.5 74t-12 46z" />
<glyph unicode="^" horiz-adv-x="966" d="M45 709q115 133 200 244.5t244 322.5h19q37 -51 96.5 -132t150.5 -203t165 -212q2 -6 0 -8q-35 -4 -90.5 -29.5t-79.5 -48.5l-13 -4q-104 188 -239 338q-4 6 -48 -46t-104.5 -133t-118.5 -180q-6 -2 -10 -4q-27 27 -44 37.5t-43 21.5t-49.5 19t-35.5 17z" />
<glyph unicode="_" horiz-adv-x="561" d="M-14 -293h575v-115h-575v115z" />
<glyph unicode="`" horiz-adv-x="563" d="M113 1616q0 23 16 39t51 35.5t92 38.5q127 -70 219.5 -137.5t120.5 -108.5q4 -9 0 -13q-66 -31 -131 -59q-59 45 -155.5 90t-210.5 90q-2 8 -2 25z" />
<glyph unicode="a" horiz-adv-x="1300" d="M61 391q0 109 45 205q49 125 170 204t263 91q16 -2 30.5 -2h30.5q37 0 115 6t116 6q45 0 86 -6t73 -20.5t69 -14.5q35 0 83 13.5t91 25.5q18 0 18 -8l-4 -21q-43 -145 -64.5 -280t-21.5 -262q0 -139 27 -322q-4 -14 -10 -14l-297 6q-2 2 -10.5 19.5t-20.5 17.5 q-55 -20 -116.5 -25.5t-153.5 -5.5q-78 -20 -150 -20q-90 0 -165 30.5t-119 94t-64.5 135t-20.5 147.5zM371 385q0 -92 47 -158q25 -43 62.5 -69.5t80.5 -26.5q20 0 68.5 16.5t125 89t105.5 139t43.5 107.5t14.5 78q-1 27 -5 39q-10 55 -97 110.5t-169 55.5 q-70 -27 -132 -79t-103 -129t-41 -173z" />
<glyph unicode="b" horiz-adv-x="1226" d="M39 1276q51 18 122.5 23.5t141.5 11.5q45 -6 83 -8.5t60 -2.5l5 -8q-18 -82 -28.5 -242.5t-14.5 -193.5q10 -18 18 -20q8 2 157.5 18t204.5 39q16 4 34 4h26q133 0 229 -92q49 -57 68.5 -127t19.5 -158q0 -6 -5 -22.5t1 -22.5q0 -121 -73.5 -229.5t-201.5 -185 t-325 -76.5q-111 0 -178.5 8t-126.5 41q-35 0 -94.5 -22.5t-91.5 -22.5q0 43 19.5 173t19.5 185q6 47 9 178t9 183q-4 4 -4 28v88q0 168 -14.5 265.5t-69.5 187.5zM367 266q35 -49 89 -88t93 -52t57 -13q23 0 48.5 9t64.5 38q147 135 147 317q0 62 -20 121 q-27 84 -60.5 109.5t-87.5 25.5q-16 0 -32.5 -1t-32.5 -1q-133 -57 -199.5 -185t-66.5 -280z" />
<glyph unicode="c" horiz-adv-x="1200" d="M61 369q0 119 53.5 213t155.5 180q129 61 320.5 96t544.5 35q6 -8 35.5 1t33.5 9q6 0 4 -7.5t-16 -23.5q-47 -59 -101.5 -114.5t-101.5 -85.5q-6 2 -135 47t-178 45q-45 0 -84 -16q-111 -72 -177.5 -165.5t-66.5 -213.5q12 -78 43 -140.5t92 -91.5q78 -43 168 -43 q111 0 253.5 72t271.5 137l-132 -289q-66 -12 -161 -20t-265 -8h-135h-45t-47 -2q-33 0 -61.5 4t-48.5 18q-102 51 -161 149.5t-59 213.5z" />
<glyph unicode="d" horiz-adv-x="1300" d="M66 420q0 113 42 207t124.5 158.5t181.5 72.5q45 14 100 14q39 0 81 -6t64 -8q16 10 0 35q-98 86 -262 197.5t-250 171.5v8q152 0 262.5 -1t229.5 -5l57 -47q55 -57 111 -115q164 -152 276.5 -279.5t143.5 -242.5q16 -66 16 -121q0 -94 -37 -181.5t-114.5 -162t-189 -103 t-279.5 -28.5h-60q-135 0 -221 18t-149.5 84t-95 152t-31.5 182zM379 444q0 -61 18.5 -117.5t55 -96.5t74.5 -56t122 -43q82 0 142.5 55.5t109.5 145.5q31 66 31 145q0 49 -11.5 88t-45 74t-98 59.5t-130.5 24.5q-53 0 -101 -15.5t-90 -57.5t-59.5 -95t-17.5 -111z" />
<glyph unicode="e" d="M61 367q0 117 51.5 230.5t177.5 197.5t265 84q61 6 129 12t100 6q74 0 127.5 -11.5t92 -37t65.5 -39.5q27 -23 58.5 -83t31.5 -140q0 -92 -41 -164q-14 -4 -18 -8q-76 10 -138.5 12t-164.5 2q-152 0 -242 -2t-168 -4q-12 -12 -12 -41q0 -16 2 -36.5t2 -22.5 q0 -49 29.5 -95.5t96 -82t165.5 -35.5q70 0 125 26q70 23 146.5 55.5t217.5 112.5q2 -4 0 -18l-151 -297q-8 -4 -17 -11q-63 0 -196 10.5t-177 10.5q-25 0 -44 -1t-87 -9q-147 0 -218.5 28.5t-118 82t-68 122t-21.5 146.5zM408 596q0 -8 8 -16q31 -6 64.5 -8.5t78.5 -2.5 q63 0 161.5 5.5t110.5 5.5q15 4 19 8q6 16 3 32.5t-10 34t-57.5 61.5t-88.5 51t-60 7q-57 0 -105.5 -32.5t-97.5 -90.5q-12 -18 -19 -31.5t-7 -23.5z" />
<glyph unicode="f" horiz-adv-x="1075" d="M45 31q0 41 10.5 85t26.5 81q0 6 16 10q18 0 37 -1t37 -1q45 0 64.5 7t19.5 26q0 104 6 331.5t6 337.5q0 37 28 76t60.5 49t67.5 10q41 0 110.5 -18t90.5 -20q80 63 186 63q63 0 106.5 -22.5t79.5 -40.5q34 -23 34 -59q0 -5 -1 -11q0 -45 -32.5 -87t-55.5 -69 q-10 -8 -18.5 -10t-10.5 10q-51 33 -106 68t-98 47q-74 -8 -98.5 -60.5t-49.5 -121.5q-20 -104 -27.5 -211t-7.5 -250q0 -25 3 -35t22 -14h434q8 -2 6 -11.5t-6 -21.5q-35 -66 -54.5 -100.5t-39.5 -40.5q-63 0 -184 2t-181 2q-4 -4 -8 -9.5t-10 -13.5q-8 -82 -10 -160.5 t-2 -183.5v-49q-20 -2 -29 -6q-63 -8 -133 -18.5t-123 -10.5q-6 0 -9 2t3 58.5t19.5 179.5t13.5 207l-11 12q-33 0 -94 -4t-88 -4z" />
<glyph unicode="g" horiz-adv-x="1220" d="M8 -217q0 39 13.5 77t37 72.5t45 53t148.5 106.5q-6 18 -43 57t-41 50q-70 94 -70 233q0 102 46 202.5t160 168t251 82.5q39 14 103.5 20t121.5 6q47 0 102.5 -3t116.5 -5q39 0 86.5 11.5t106.5 25.5v-45q-47 -176 -59.5 -392t-12.5 -497q0 -94 -48 -177t-143 -145.5 t-265 -81t-326 -34.5q-109 0 -185.5 27.5t-110.5 85t-34 102.5zM319 -158q0 -70 47.5 -106.5t108.5 -36.5q31 0 67 8t76 23q80 35 137.5 105.5t71.5 152.5q12 100 17.5 202.5t5.5 237.5v27v24q0 35 -1 71t-1 73v20q-8 27 -18.5 38t-105.5 50t-157 39q-57 -23 -98 -75 t-55 -117q-14 -51 -15 -117q0 -59 15.5 -110.5t50.5 -90.5q37 -31 85 -44t107 -13q39 0 63.5 3t74.5 13l6 -4q-4 -33 -11.5 -63.5t-31.5 -63.5q-182 -20 -285.5 -57t-148.5 -156q-4 -20 -5 -33z" />
<glyph unicode="h" horiz-adv-x="1341" d="M41 1276q-2 6 3 9t13 3q68 0 221.5 10.5t208.5 10.5v-33q-25 -63 -38 -148.5t-13 -236.5v-92q4 -6 8.5 -8.5t6.5 -2.5q49 23 184 45.5t186 45.5q59 18 125 18q129 0 206 -59.5t108.5 -135t31.5 -157.5q0 -53 -12 -107q-12 -72 -52 -136t-106 -134q0 -8 4 -13t7 -5 q84 8 170 18q0 -31 -25 -74t-41 -74.5t-74 -37.5q-53 -2 -106 -5q-76 8 -144.5 10.5t-160.5 2.5h-109.5t-107.5 -2q213 164 318 272.5t105 259.5q0 33 -11 82t-69.5 91t-123.5 42q-63 -25 -124 -75t-122.5 -139t-89 -224t-27.5 -305l-8 -8q-59 0 -136 1t-173 3 q0 63 20.5 166.5t27.5 189.5t13 193.5t6 244.5q0 174 -14 320q0 43 -19.5 76.5t-66.5 97.5z" />
<glyph unicode="i" horiz-adv-x="563" d="M14 866q4 6 14.5 6t12.5 2q55 0 201.5 28t167.5 28q45 0 45 -23q0 -43 -9.5 -121.5t-9.5 -91.5q0 -121 4 -398.5t4 -287.5l2 -10l-329 4q0 45 10 96.5t20 102.5q4 43 6.5 134t2.5 140v166q-10 66 -59.5 125t-82.5 100zM119 1040q-4 4 0 13q100 139 241 217 q74 -6 154 -21.5t92 -28t12 -36.5q0 -17 -2 -23q-90 -37 -165.5 -77t-151.5 -99q-45 10 -90 24.5t-90 30.5z" />
<glyph unicode="j" horiz-adv-x="675" d="M-96 -375q18 27 34.5 43.5t77.5 71.5q14 0 39 -18.5t41 -10.5q100 135 134 305t34 400q0 49 -2 150.5t-2 150.5q-12 20 -16 28q-27 0 -76 -6t-74 -6q-12 0 -41 4q18 102 21.5 117.5t21.5 65.5q0 8 8.5 6t12.5 4q115 0 252 4t229 8l4 -12q-39 -119 -53 -245t-14 -286 q0 -76 4 -252t4 -190q-12 -123 -116.5 -219t-240.5 -150q-53 -12 -108 -12q-49 0 -93 11.5t-81 37.5zM186 1067v10q72 70 147 123t156 88q49 -14 105.5 -40.5t107.5 -55.5q-143 -99 -286 -195q-53 0 -117 23q-76 33 -113 47z" />
<glyph unicode="k" horiz-adv-x="1136" d="M82 -4q25 254 34 520t9 590q0 41 -9.5 78t-29.5 96q25 12 64 12q31 -2 45 -2q8 0 24 4q68 0 130.5 11.5t107.5 19.5q4 -8 0 -41q0 -133 -31 -372.5t-31 -362.5q2 -8 11.5 -8t19.5 2q174 127 252 194.5t149 145.5q57 0 174 6t175 6q-92 -70 -186.5 -140.5t-186.5 -146 t-164 -147.5v-12q188 -197 276.5 -282t204.5 -165q-88 -18 -135 -26.5t-100 -8.5q-55 0 -91 9.5t-75 33.5q-154 143 -305 289q-4 0 -25 -20q0 -47 12.5 -143.5t12.5 -143.5q-4 -6 -8.5 -8t-6.5 -2q-55 6 -156.5 10t-160.5 4z" />
<glyph unicode="l" horiz-adv-x="737" d="M72 -39q33 188 50 449.5t17 740.5q-10 74 -20 149q2 4 9 4.5t9 6.5h82h31q109 0 205 12q23 8 26.5 -6t3.5 -35q-35 -283 -55 -522.5t-20 -478.5q6 -47 10 -77t35 -36q53 0 104 5t125 15q-8 -45 -24.5 -90t-30.5 -86q-37 -18 -78 -23t-72 -5q-90 0 -174 26 q-113 -29 -223 -59l-5 5z" />
<glyph unicode="m" horiz-adv-x="2004" d="M45 844q199 23 397 45q20 -4 24.5 -32t8.5 -48q12 -8 14 -8l175 28q55 25 114.5 41.5t116.5 16.5q86 0 149 -43q10 -4 34 -39q18 -26 40 -26q7 0 15 3q199 49 399 101q113 0 189.5 -23.5t118.5 -82t58.5 -113t16.5 -119.5q0 -92 -35 -168q-20 -53 -56 -109.5t-77 -105.5 q0 -18 12 -23q45 0 123 15.5t88 17.5q4 -4 0 -22q-29 -45 -56.5 -88.5t-60.5 -86.5q-59 12 -121.5 16.5t-138.5 4.5q-82 0 -218 -5t-161 -5q119 80 195 142t134.5 152.5t58.5 194.5q0 31 -3 45q0 55 -30.5 101.5t-85.5 78.5q-31 12 -51.5 17.5t-47.5 5.5q-18 0 -99 -36 t-150.5 -187.5t-69.5 -345.5q0 -29 7 -86.5t7 -79.5l-323 4q4 23 43 186.5t39 272.5q0 45 -7 92q-12 61 -34.5 101t-56 54.5t-58.5 14.5q-31 0 -57.5 -13.5t-49.5 -27.5q-88 -80 -125.5 -200t-37.5 -261q0 -45 4 -100.5t10 -112.5q-61 0 -208.5 4t-151.5 4q4 20 13 44t19 48 q39 131 56.5 254t17.5 271q0 59 -35 116.5t-92 104.5z" />
<glyph unicode="n" horiz-adv-x="1359" d="M43 840v12q90 0 175 8t161 29q25 8 31 -10q4 -29 6 -39.5t5 -19.5t17 -15q88 27 162 40t162 13q45 10 99 18.5t102 8.5q55 0 98 -10.5t94 -48.5t79 -106.5t28 -154.5v-33q-4 -25 -10.5 -73.5t-48.5 -132.5t-107 -160q0 -25 12 -25q68 16 109 26t92 26q-18 -39 -48 -91.5 t-57 -99.5l-12 -12q-72 6 -167 9t-210 3h-225q90 82 156.5 144.5t113.5 129.5q37 63 62.5 131t25.5 130q0 37 -11 71.5t-35.5 65.5t-62.5 48t-89 23q-115 -18 -206 -114t-118 -174t-33 -126t-6 -89q0 -51 5 -136.5t5 -97.5l-2 -6h-319l-6 4q33 145 54 260t21 219 q0 111 -22.5 195t-79.5 160z" />
<glyph unicode="o" horiz-adv-x="1269" d="M141.5 623.5q71.5 105.5 185 156.5t269.5 76q109 41 223 41q68 0 123 -15.5t102 -52.5q27 -12 39.5 -17t63.5 -101q53 -96 53 -226q0 -147 -78 -254.5t-186.5 -147.5t-252.5 -73t-160.5 -35t-51.5 -2q-104 0 -190 41t-140 127q-71 101 -71 236q0 141 71.5 246.5zM350 418 q0 -74 34 -141.5t104.5 -113.5t154.5 -46q10 -1 20 -1q36 0 62 18q33 22 94 79q94 100 94 248v5q0 71 -26 124q-37 84 -107.5 122t-158.5 38q-70 -20 -121 -50t-100.5 -99t-49.5 -183z" />
<glyph unicode="p" horiz-adv-x="1208" d="M70 862l321 25q8 -6 12.5 -34t24.5 -30q31 12 120 21.5t124 36.5q69 24 136 24h5q88 0 160 -38t125 -122q55 -90 55 -206q0 -174 -86 -288t-177 -159t-210 -67q-68 -27 -133.5 -45.5t-126.5 -18.5l-12 -12q0 -66 8 -188.5t8 -180.5l-4 -10q-41 0 -81 1t-79 1h-64.5 t-95.5 -8q-4 2 -6 12q14 156 22.5 303.5t8.5 302.5q0 184 -13.5 355.5t-41.5 324.5zM397 238q35 -49 96.5 -75t135.5 -32q41 6 74.5 37t85 105.5t51.5 193.5q0 88 -39 151q-40 66 -48 66q-10 0 -14 6q-47 25 -70.5 34t-52.5 9q-23 0 -45 -12q-109 -74 -141.5 -192.5 t-32.5 -290.5z" />
<glyph unicode="q" horiz-adv-x="1157" d="M61 381q0 90 33 182q51 125 171 192.5t270 92.5q86 33 188 33q129 0 250 -50q31 0 68.5 15.5t72.5 30.5q2 0 22.5 7t28.5 7q6 0 8 -4.5t-2 -16.5q-49 -137 -67.5 -296.5t-18.5 -344.5q0 -63 2.5 -196t2.5 -201q10 -88 18 -140t25 -116v-10q-82 0 -210 -5t-145 -5 q0 68 14.5 203t14.5 206q-4 20 -16 27q-33 -4 -54 -4q-33 0 -89 5t-66 5q-57 -14 -129 -14q-78 0 -149 23.5t-120 72.5q-63 57 -93 134t-30 167zM385 432q0 -100 47 -184t135 -119q63 0 128 37t108 63q25 25 30 74t9 66q0 37 5 105.5t5 82.5q0 35 -6 70q-8 55 -92 82.5 t-183 27.5q-86 -41 -136 -126t-50 -179z" />
<glyph unicode="r" horiz-adv-x="1394" d="M43 821l8 4q88 0 193.5 14.5t204.5 28.5q10 -8 18 -38.5t22 -38.5q63 27 240.5 57.5t198 35.5t35 5h22.5q66 0 120 -19.5t106.5 -80t52.5 -166.5q0 -35 -10.5 -86.5t-84 -128t-170.5 -129.5v-13q80 -63 173.5 -123.5t177.5 -103.5q-66 -20 -136.5 -32.5t-142.5 -12.5h-6 q-84 0 -154 26q-156 84 -239.5 119t-163.5 54q-23 -12 -23 -50q0 -10 2 -30.5t2 -28.5q0 -6 4.5 -24.5t4.5 -30.5q0 -18 -19 -25h-250q-6 2 -8 4q0 127 5 325.5t5 233.5q0 74 -52 135.5t-136 118.5zM494 334q0 -27 14 -37q76 0 144.5 20.5t133 60.5t107.5 102.5t43 129.5 q0 20 -6 43q-12 55 -31.5 68.5t-122.5 23.5q-106 -41 -183 -141t-87 -166.5t-11 -78t-1 -25.5z" />
<glyph unicode="s" horiz-adv-x="1101" d="M55 240q0 27 6 55q10 10 13 10l274 -6q12 -8 12 -20q-4 -25 -8 -48q0 -45 27 -79q49 -43 125 -43q12 0 28.5 2t51 7t90 53t71.5 112q0 51 -22 63q-25 23 -60.5 32t-76.5 9q-25 0 -49.5 -1t-47.5 -1q-59 -6 -78.5 -7t-62.5 -1q-84 0 -147.5 23.5t-102.5 84.5 q-30 42 -30 105q0 55 38.5 132t161.5 111.5t320 34.5q72 20 145 21q90 0 166 -31t94.5 -68.5t27.5 -64.5t9 -43q0 -23 -10 -35q-63 0 -160.5 -5t-114.5 -5q-12 37 -26 60.5t-45 39.5q-47 20 -107 21q-74 0 -125 -39q-20 -18 -41.5 -40t-21.5 -48q0 -23 13.5 -42.5t37 -29.5 t57 -14t74.5 -4q43 0 131 8t129 8q109 0 164 -43t55 -168q0 -100 -63.5 -186t-157.5 -119q-37 -20 -85 -29.5t-99 -9.5h-57.5t-57.5 2q-59 0 -114 -14q-111 0 -191 24.5t-129 98.5q-31 55 -31 127z" />
<glyph unicode="t" horiz-adv-x="1003" d="M82 676q4 55 7 92t15 68q23 4 47.5 4h38.5h33q12 0 28.5 2t24.5 2q53 86 88 140t80 112q16 12 23 12q98 12 224 20.5t237 14.5q-147 -141 -293 -283q6 -10 22 -10q55 0 181.5 4t132.5 4q10 -8 0 -18l-78 -168l-10 -8q-61 0 -196.5 4t-147.5 4q-20 2 -29.5 -17.5 t-17.5 -38.5q-23 -90 -23 -180q0 -92 23.5 -170t67.5 -123t87 -45q14 0 44 8.5t62.5 24.5t198.5 111q-14 -57 -43 -146q-23 -59 -30 -88l-17 -12h-473q-45 8 -82 34.5t-85 112.5t-48 265q0 125 35 239q-10 25 -49 25q-35 -2 -70 -2z" />
<glyph unicode="u" horiz-adv-x="1261" d="M55 350v31q4 23 10.5 65.5t38 109.5t84.5 134q2 6 -3 11.5t-13 9.5q-16 2 -42 0t-48 -2q-18 0 -27 2q8 39 17.5 67.5t33.5 79.5h48h41h36h31h29h24h75t77 2h20q45 0 115 3t72 3q51 0 100 -6l-262 -192q-145 -131 -145 -275q0 -23 7 -65.5t41 -97t72.5 -73t60 -20.5 t23.5 -2q53 0 103.5 31t105.5 84q72 78 96.5 184.5t24.5 251.5v23q0 35 -1 69.5t-1 71.5v20l10 4h314l10 -4q-2 -29 -40 -293t-38 -352q0 -80 9.5 -135t15.5 -82h-312q-4 6 -6 27.5t-10 30.5q-45 -10 -157.5 -22.5t-149.5 -20.5q-82 -31 -170 -31q-55 0 -97 11t-132.5 83 t-90.5 264z" />
<glyph unicode="v" horiz-adv-x="1302" d="M41 721q12 31 32.5 64.5t49.5 78.5q106 0 283.5 7.5t226.5 7.5q-123 -113 -191.5 -242t-68.5 -279q0 -39 8 -87t48 -94t83 -62.5t74 -16.5q68 0 134 55.5t111 92.5q68 74 104 151.5t36 161.5q0 45 -13 92q-25 66 -128 91.5t-119 31.5q156 70 210 89.5t138 29.5q37 2 51 2 q39 0 67.5 -21.5t63.5 -89.5q43 -80 43 -180q0 -102 -40 -198.5t-111 -186.5q-221 -229 -539 -229q-39 -8 -89 -14.5t-93 -6.5q-90 0 -159 25.5t-124 103.5t-55 219q0 154 71 277q37 55 74 111q-4 12 -8 14t-14.5 2t-47 -4t-53.5 -4h-33q-16 6 -22 8z" />
<glyph unicode="w" horiz-adv-x="1953" d="M43 293q0 47 6 90q39 158 174 289q0 8 -5 12t-7 6h-139q6 35 19 69t31.5 64.5t26 31.5t13.5 1h74q178 0 270 3t223 15q-123 -117 -244 -233q-133 -145 -133 -287q0 -31 6 -61q6 -63 42 -115.5t96 -66.5q113 0 198.5 97t118.5 187t44 162t11 141q0 59 -4 93t-4 51 q33 -2 57.5 -3t40.5 -1q43 0 145.5 4t108.5 4q-12 -51 -40.5 -129t-40 -129t-11.5 -129q0 -90 24.5 -161t84.5 -124q43 -23 64.5 -32t54.5 -5q109 41 185.5 148.5t94.5 226.5q0 51 -11 94t-38 80q-39 35 -76 49.5t-198 52.5q104 55 204.5 87t210.5 32q8 -2 16.5 -2h10.5 q8 0 25.5 -15.5t66.5 -64.5q39 -43 58.5 -104.5t19.5 -128.5q0 -105 -35 -209q-66 -154 -212 -252t-316 -98q-57 -18 -114.5 -31.5t-109.5 -13.5q-88 0 -149 39q-16 14 -41 46.5l-35 45.5q-82 -43 -119.5 -61.5t-89.5 -30.5q-55 0 -189 -23.5t-181 -23.5q-43 0 -81 6t-73 24 q-68 43 -98.5 117t-30.5 166z" />
<glyph unicode="x" horiz-adv-x="1386" d="M16 -2q258 180 519 360q0 27 -27 83.5t-72 158.5q-35 68 -71 113q-20 16 -46 22t-55 6q-20 0 -39.5 -1t-40.5 -1q0 27 14.5 59.5t28.5 63.5q37 10 96.5 13t69.5 2h56q20 0 61 8t61 8q31 0 50.5 -9.5t39 -42t61.5 -142t44 -111.5q10 -4 27 6q109 94 160 142t98 116 q12 4 22 8q47 0 141.5 6t141.5 6q-4 -6 -25.5 -26.5t-30.5 -34.5q-252 -211 -456 -414q53 -139 78.5 -189t66.5 -73.5t58.5 -27t39.5 -3.5q35 0 72 6.5t49 8.5q-8 -33 -18 -68t-33 -53q-37 0 -110.5 -2t-108.5 -2q-86 0 -120 3t-93 13q-49 20 -80 91t-47 87q-6 2 -13 -2 t-35 -22.5t-85 -68.5t-111 -97h-338z" />
<glyph unicode="y" horiz-adv-x="1294" d="M-43 -197q0 63 19.5 133t47 119t50 83t51.5 63q106 10 215 22q-8 -25 -45 -69.5t-54.5 -79.5t-31.5 -87.5t-14 -105.5q0 -80 38 -137q43 -55 103 -55q10 0 35 4q90 27 143 106.5t86 190.5q6 12 -12 22q-37 0 -105.5 -9t-76.5 -9q0 100 2 160.5t4 113.5q0 123 -14.5 209 t-59.5 168q-16 12 -47 12q-43 -2 -84 -4q-27 0 -80 -6t-80 -6q29 45 94.5 121t77.5 90q51 0 155.5 2t155.5 2l19 -4q82 -115 115.5 -261.5t33.5 -320.5q8 -12 16.5 -4t45.5 84t110.5 227.5t147.5 264.5q6 18 51 26h201q4 0 10 -8q-88 -168 -182 -351t-164 -344t-121 -339 q-45 -117 -154.5 -167t-261.5 -67q-51 -12 -103 -21t-99 -9q-53 0 -99.5 13t-81.5 44q-29 35 -43 85t-14 99z" />
<glyph unicode="z" horiz-adv-x="1198" d="M8 -10l2 14q70 74 213.5 217.5t231.5 242.5t157 208q4 10 -18 20q-100 0 -227 -17.5t-244 -33.5v12q39 66 64.5 108t54.5 81q84 12 165.5 17t188.5 5q47 0 146.5 -2t152.5 -2q25 8 52.5 10t68.5 2q63 0 97 -3t50 -7q-203 -152 -333 -308.5t-259 -379.5q16 -16 19 -16 q27 -4 52.5 -4h51.5q102 0 188.5 10t239.5 37q-12 -47 -46 -105.5t-64 -113.5l-13 -9q-109 0 -362.5 18.5t-349.5 18.5q-76 0 -144.5 -4t-134.5 -16z" />
<glyph unicode="{" horiz-adv-x="649" d="M14 549q90 49 143.5 114.5t53.5 127.5q0 49 -43 159.5t-43 161.5q0 166 71.5 273.5t227.5 150.5q80 -41 122 -65.5t85 -61.5q-27 -10 -74 -35.5t-100.5 -53.5t-69.5 -73t-16 -170q0 -31 24.5 -155.5t24.5 -169.5q0 -57 -49 -109.5t-105 -85.5q49 -27 89 -89t40 -136 q0 -25 -8 -166t-8 -172v-29q0 -66 16.5 -116t86 -84.5t149.5 -75.5q-39 -33 -87 -61.5t-120 -65.5q-164 70 -231.5 166t-67.5 258q0 45 34 165.5t34 151.5q0 80 -61.5 148.5t-117.5 97.5z" />
<glyph unicode="|" horiz-adv-x="501" d="M147 -356v1892h222v-1892h-222z" />
<glyph unicode="}" horiz-adv-x="649" d="M31 -311q16 6 74.5 37.5t99.5 52t59.5 74t18.5 114.5v27q0 45 -5.5 136t-11.5 202q0 76 39 136t90 89q-55 33 -104 85t-49 110q0 45 24.5 170t24.5 155q0 123 -16.5 170t-75 77t-100.5 52.5t-68 32.5q39 33 87 61.5t120 65.5q154 -41 226.5 -149.5t72.5 -274.5 q0 -47 -43 -164t-43 -157q0 -82 64 -143.5t132 -98.5q-55 -29 -116.5 -97.5t-61.5 -148.5q0 -33 34 -158t34 -159q0 -164 -65.5 -258.5t-233.5 -165.5q-80 41 -122 65.5t-85 61.5z" />
<glyph unicode="~" horiz-adv-x="1009" d="M70 1104v22q72 98 116.5 144.5t120.5 46.5q53 0 210 -56.5t183 -56.5q47 0 88 27q45 35 93 69q8 -2 16 -2q6 -23 28.5 -62.5t28.5 -55.5q-4 0 -97 -64.5t-157 -64.5q-96 0 -223 59t-174 59q-41 0 -65 -43q-18 -39 -37 -75q-35 18 -66 30.5t-65 22.5z" />
<glyph unicode="&#xa1;" horiz-adv-x="534" d="M45 881h10l262 28q31 0 48 -2q48 -85 73 -159q0 -8 -18 -9q-66 -8 -118 -14t-150 -23q-25 12 -44.5 42t-25.5 57q-12 23 -21.5 41t-15.5 39zM88 -461q0 170 11.5 334t28.5 343t36 349q53 20 107.5 27.5t129.5 7.5q4 14 8.5 28.5t10.5 28.5q0 -166 -10.5 -352t-21.5 -393 t-11 -344q-72 -14 -143.5 -25.5t-135.5 -11.5q-6 0 -10 8z" />
<glyph unicode="&#xa2;" horiz-adv-x="1169" d="M59 -27q43 72 92.5 147t75.5 116q10 12 0 28q-74 51 -111.5 129t-37.5 168q0 59 18.5 138t102.5 165t159.5 108.5t195.5 41t136 22.5q23 23 23 35q33 66 51 102.5t55 94.5q25 4 73 6t75 2q74 14 147 14q-74 -111 -147 -219q-8 -12 0 -17t18 -10q39 -6 81 -13t73 -19 l-6 -8q-98 -84 -213 -166q-10 0 -43 13t-50 7q-74 -100 -149.5 -236.5t-145.5 -263.5q-12 -20 23 -41q14 -2 43 -2q53 0 101.5 14.5t119.5 45.5q53 18 144.5 60t117.5 52q-18 -53 -52 -121.5t-62 -129.5q-84 -16 -262.5 -18.5t-262.5 -14.5q-25 -35 -57.5 -110t-54.5 -111 q-8 -8 -15 -9h-247h-9zM326 569q0 -47 8 -82q16 -18 24 -10q131 199 246 432l-6 9q-33 0 -59.5 -13.5t-83 -53.5t-93 -117t-36.5 -165z" />
<glyph unicode="&#xa3;" horiz-adv-x="1374" d="M51 463q6 33 32 92t32 80q25 6 60.5 8t72.5 2q16 12 16 19q0 199 64.5 350t206 208.5t290.5 57.5q72 0 148 -16q14 0 49 8t51 8q14 0 42 3t30 3q45 0 61 -35q14 -51 29.5 -119.5t30.5 -146.5h-17q-80 55 -159 113q-98 63 -175 63q-57 0 -114 -33q-125 -55 -173 -172.5 t-48 -275.5q0 -35 18 -35q61 -6 162.5 -8t187.5 -2q-6 -45 -21.5 -81t-39.5 -83q-6 0 -6 -8q-53 0 -100.5 2t-92.5 4q-25 0 -62.5 -3t-39.5 -3q-16 0 -17 -21q0 -68 -20.5 -131t-59.5 -139q0 -20 29 -20q215 0 407.5 18t411.5 55v-14q-39 -47 -78.5 -106.5t-91.5 -145.5 q-10 -8 -16 -8q-156 20 -307.5 32.5t-306.5 12.5q-109 0 -202 -6t-196 -23q-8 0 -6 8.5t6 10.5q117 174 117 389v37q-4 27 -4 39l-4 12q-12 2 -37 2q-29 0 -57.5 -2t-57.5 -4q-16 0 -45 4z" />
<glyph unicode="&#xa4;" horiz-adv-x="1138" d="M61 94l111 111q-55 63 -83 146t-28 173q0 92 26 172t85 148l-111 110l78 78l115 -112q133 113 315 112q182 0 316 -112l114 112l78 -78l-110 -110q55 -63 82.5 -146.5t27.5 -173.5q0 -92 -25.5 -172t-84.5 -147l110 -111l-78 -78l-114 113q-133 -113 -316 -113 q-182 0 -315 113l-115 -113zM221 539q0 -147 98.5 -254t241.5 -107q141 0 240.5 108t99.5 253q0 147 -98 253.5t-242 106.5q-141 0 -240.5 -107.5t-99.5 -252.5z" />
<glyph unicode="&#xa5;" horiz-adv-x="1275" d="M4 1294h340q23 -45 125 -267t166 -355l31 -2q53 98 161.5 314t151.5 310h285q0 -4 -3.5 -12t-3.5 -16q-63 -88 -136.5 -214t-131.5 -239q55 0 89 2t59 6q6 0 6 -8t-6 -8q-4 -20 -9.5 -72.5t-11.5 -114.5q-12 0 -15 -2t-3 -4q-31 0 -105.5 7.5t-95.5 7.5l-88 -191 q68 0 182.5 5t138.5 5v-12q-12 -45 -19 -80t-19 -110q-125 16 -310 16l6 -131q10 -25 12.5 -55.5t2.5 -67.5q-78 -6 -156 -6h-22h-71t-71 2h-18l-8 8q0 41 6 125t6 123q-131 0 -208 -2t-140 -8q-6 0 -6 8t6 8q12 37 18 92.5t11 89.5q12 0 14 2.5t4 4.5q61 0 122.5 -4.5 t147.5 -8.5l-80 189l-252 -6v12q20 57 25.5 93t5.5 93l129 -2q-72 137 -116 217t-121 205q0 10 -16.5 25.5t-8.5 27.5z" />
<glyph unicode="&#xa6;" horiz-adv-x="0" d="M147 -283v686h222v-686h-222zM147 782v754h222v-754h-222z" />
<glyph unicode="&#xa7;" horiz-adv-x="1308" d="M156 535q0 172 128 242.5t248 70.5q18 -2 25 -2q-121 49 -203 114.5t-82 186.5q0 150 147.5 236.5t360.5 86.5q123 0 211 -76.5t88 -176.5q0 -27 -40 -38.5t-97 -11.5q-23 0 -57.5 2t-38.5 2q-10 51 -23.5 128t-105.5 77q-88 0 -155.5 -59.5t-67.5 -124.5 q0 -88 165.5 -156.5t325.5 -134.5q174 -96 174 -237q0 -131 -95 -212t-257 -157v-2q117 -12 208 -69.5t91 -157.5q0 -160 -163 -255.5t-363 -95.5q-147 0 -255 52.5t-108 179.5q0 45 19.5 59t48.5 14q27 -2 32 -2q37 0 88.5 -1t51.5 -13v-74q0 -90 25.5 -117.5t133.5 -27.5 q78 0 155 54.5t77 117.5q0 98 -64.5 172t-171.5 74q-176 0 -316 84t-140 248zM397 578q0 -106 76 -162t162 -56q260 1 260 218q0 100 -85 162.5t-200 62.5q-100 0 -156.5 -69.5t-56.5 -155.5z" />
<glyph unicode="&#xa8;" horiz-adv-x="1015" d="M82 1530q-6 8 7 19.5t34.5 34t57.5 60t83 82.5q35 -12 80 -35.5t68 -35.5q6 -8 28.5 -16.5t28.5 -24.5q-43 -43 -122 -106.5t-95 -77.5q-41 14 -85 42.5t-85 57.5zM543 1530q-6 8 7 19.5t34.5 34t57.5 60t83 82.5q35 -12 80 -35.5t67 -35.5q6 -8 29 -16.5t29 -24.5 q-43 -43 -122 -106.5t-95 -77.5q-41 14 -85 42.5t-85 57.5z" />
<glyph unicode="&#xa9;" horiz-adv-x="1705" d="M100 719q0 311 220.5 531t531.5 220q313 0 532.5 -219t219.5 -532t-219.5 -532.5t-532.5 -219.5q-311 0 -531.5 220.5t-220.5 531.5zM205 719q0 -274 192.5 -471t454.5 -197q264 0 456.5 197t192.5 471t-191.5 469.5t-457.5 195.5q-264 0 -455.5 -195.5t-191.5 -469.5z M428 686q0 147 70 258q61 84 145 127t184 43q37 4 82 9t70 5q18 0 63 -5t127 -55t82 -62q0 -8 -14 -15l-139 -65h-13q-100 121 -235 121q-80 -14 -142.5 -73t-86 -131.5t-23.5 -137.5q0 -70 21.5 -131.5t63.5 -103.5t82 -61.5t85 -19.5q27 0 123 26.5t237 119.5 q-14 -100 -49 -197l-8 -6q-47 -8 -110.5 -10.5t-141.5 -2.5h-84q-37 -4 -55 -4q-92 0 -163 35t-121 124t-50 212z" />
<glyph unicode="&#xaa;" horiz-adv-x="694" d="M61 985q0 66 23 123q23 74 83 121t132 55q10 -2 33 -2q18 0 64 4t50 4q33 0 46.5 -3t33 -12t33.5 -9q16 0 46 9t42 13q10 0 6 -16q-43 -172 -43 -326q0 -39 3 -85t12 -107l-7 -9l-147 3q-6 12 -9 17t-7 5q-31 -14 -73 -16t-63 -2q-35 -12 -73 -13q-45 0 -83 19.5t-70 75 t-32 151.5zM217 981q0 -57 23 -94q29 -57 71 -58q10 0 34 9.5t62.5 52.5t51 81t21.5 64.5t9 53.5q0 14 -2 20q-6 33 -49 65.5t-84 32.5q-35 -16 -66.5 -45.5t-51 -75t-19.5 -106.5z" />
<glyph unicode="&#xab;" horiz-adv-x="991" d="M-10 584q6 6 12 0l-12 16q23 20 66.5 79.5t99.5 139.5q55 82 141 216t105.5 164t41.5 67q6 -4 13 -9l102 -135q-4 -4 0 -10q-27 -29 -71 -89t-121 -175q-88 -129 -150 -223q-10 -16 -20 -33q10 -16 20 -33q61 -94 150 -221q78 -117 121.5 -176.5t70.5 -89.5q-4 -6 0 -9 l-102 -137q-6 -4 -13 -8q-23 37 -42 66.5t-105 165t-141 217.5q-55 78 -99.5 137t-66.5 80zM369 584q6 6 12 0l-12 16q23 20 66.5 79.5t99.5 139.5q55 82 141 216t105.5 164t41.5 67q6 -4 13 -9l102 -135q-4 -4 0 -10q-27 -29 -71 -89t-121 -175q-88 -129 -150 -223 q-10 -16 -20 -33q10 -16 20 -33q61 -94 150 -221q78 -117 121.5 -176.5t70.5 -89.5q-4 -6 0 -9l-102 -137q-6 -4 -13 -8q-23 37 -42 66.5t-105 165t-141 217.5q-55 78 -99.5 137t-66.5 80z" />
<glyph unicode="&#xad;" horiz-adv-x="669" d="M43 537l96 127q59 0 191.5 3t144.5 3q74 0 84 -2q8 -5 14 -9q-10 -23 -35.5 -53.5t-56.5 -68.5q-33 0 -82 -1t-96 -1h-47h-39h-35h-28h-23h-53.5t-34.5 2z" />
<glyph unicode="&#xae;" horiz-adv-x="1705" d="M100 719q0 311 220.5 531t531.5 220q313 0 532.5 -219t219.5 -532t-219.5 -532.5t-532.5 -219.5q-311 0 -531.5 220.5t-220.5 531.5zM205 719q0 -274 192.5 -471t454.5 -197q264 0 456.5 197t192.5 471t-191.5 469.5t-457.5 195.5q-264 0 -455.5 -195.5t-191.5 -469.5z M483 1108v8q53 0 108.5 -1t113.5 -1h28q76 0 106.5 3t82.5 13q41 0 95 -12t68 -22q16 -23 33 -33q35 -45 35 -115q0 -49 -16 -80q-16 -45 -54.5 -80.5t-93.5 -70.5q2 -10 24.5 -30.5t94.5 -131.5t91.5 -130t34.5 -28.5t62 -34.5v-8q-20 -8 -59 -12t-70 -4h-80 q-66 8 -122 106.5t-66 110.5q-31 55 -77 90t-103 29q-20 -4 -21 -29v-31q0 -145 21 -274l-6 -4h-207l-6 4q16 59 22 143t6 162q0 45 -2 137t-2 138q0 82 -9 120.5t-32 67.5zM696 870q0 -20 2 -61t2 -57l5 -11q29 -4 43 -4q113 0 178 84q33 49 32 111q0 28 -12 57 q-33 63 -115 64q-39 0 -72.5 -23.5t-48 -62.5t-14.5 -97z" />
<glyph unicode="&#xaf;" horiz-adv-x="1067" d="M74 1542q-4 2 0 14q16 23 63 89.5t72 97.5q68 -10 155 -14.5t177 -4.5q125 0 244.5 5.5t187.5 9.5v-19q-61 -90 -121 -178q-10 0 -18 -8q-94 10 -159 12t-167 2q-98 0 -258 -3t-176 -3z" />
<glyph unicode="&#xb0;" horiz-adv-x="815" d="M100 1200q0 113 88 191.5t215 78.5q125 0 213.5 -78.5t88.5 -191.5t-88.5 -191.5t-213.5 -78.5q-127 0 -215 78.5t-88 191.5zM240.5 1241q-27.5 -63 1.5 -117q29 -55 95 -69.5t132 18.5q63 33 91 96.5t-1 116.5q-27 55 -94.5 69.5t-130.5 -18.5q-66 -33 -93.5 -96z" />
<glyph unicode="&#xb1;" horiz-adv-x="1024" d="M18 9q-4 2 0 14q68 104 136 211q68 -10 163 -14.5t199 -4.5q139 0 284.5 5.5t227.5 9.5v-19l-121 -202q-10 0 -18 -9q-92 10 -169 12.5t-202 2.5q-123 0 -310.5 -3t-189.5 -3zM78 655v15q18 27 27.5 103.5t34.5 107.5q137 -20 301 -21q0 152 -1 220.5t-5 129.5h18 q14 -8 38 -13t44 -5h45q27 0 41 -2t35 -15q0 -8 3 -13t5 -5q-6 -59 -12 -147.5t-6 -147.5q137 0 220 4t148 10v-18q-20 -35 -24 -102.5t-23 -100.5q-8 0 -13 -3t-5 -5q-61 6 -152.5 12t-152.5 6q0 -61 6 -188t6 -190h-15q-25 16 -59 16q-20 0 -58 -5t-44 -5q-37 0 -62 18 q23 145 23 354q-84 0 -213 -5t-150 -5z" />
<glyph unicode="&#xb2;" horiz-adv-x="618" d="M25 645l8 55q57 33 73 43q45 27 101 70q178 141 172 256q-2 29 -4 37q-29 92 -94 88q-41 -2 -68 -49q-16 -31 -16 -62q0 -35 8 -51q6 -10 -60 -33q-63 -23 -69 -6q-16 39 -15 76q4 78 54 125q82 80 200 80q137 0 191 -103q27 -53 26 -98q0 -53 -22 -102q-23 -47 -53 -86 q-31 -41 -54 -64q-25 -25 -92 -80q0 -2 4 -6q6 -2 9 -4q35 0 227 17q-10 -92 -19 -103q-10 -4 -24 -4h-45q-68 0 -164 2q-143 2 -190 4q-27 0 -84 -2z" />
<glyph unicode="&#xb3;" horiz-adv-x="624" d="M39 647v45q0 20 4 47q2 4 4 4q74 -31 137 -45q92 -20 156 13q51 31 53 77q0 47 -43 82q-33 27 -61 33q-29 6 -64 6q-33 0 -80 -8q-16 -2 -39 -8q-20 -6 -32 -8q-2 2 -2 4q0 4 2 6l245 264q0 8 -6 8q8 0 -57 0q-49 2 -86 0q-86 -2 -94 -2l-4 4q18 55 39 103q2 4 6 4 q61 0 274 -8q211 -8 211 -11q0 3 -106 -118q-109 -123 -134 -150q59 6 117 -22q68 -35 90 -109q2 -10 2 -35q0 -35 -12 -63q-12 -31 -51 -70q-37 -41 -109 -63q-70 -25 -149 -25q-51 0 -103 8q-51 8 -104 23q-4 4 -4 14z" />
<glyph unicode="&#xb4;" horiz-adv-x="563" d="M94 1470q-4 4 0 13q39 55 142.5 124.5t197.5 121.5q53 -16 91 -38t53.5 -37.5t15.5 -39.5q0 -17 -2 -23q-143 -57 -221 -93t-146 -87q-29 6 -74 30.5t-57 28.5z" />
<glyph unicode="&#xb5;" horiz-adv-x="1341" d="M37 -428q53 72 69.5 100.5t16.5 73.5q14 150 14 330q0 135 -6 239.5t-18 247.5q-23 147 -43 297q51 0 153.5 2t155.5 2l8 -8q0 -170 27.5 -305t80 -211t110 -102.5t114.5 -26.5q31 0 60.5 8t51.5 27q68 74 104 151.5t36 161.5q0 45 -13 92q-25 66 -128 91.5t-119 31.5 q156 70 210 89.5t138 29.5q37 2 51 2q39 0 67.5 -21.5t63.5 -89.5q43 -80 43 -180q0 -102 -40 -198.5t-111 -186.5q-221 -229 -539 -229l-148 69q-12 -6 -14 -10v-121q0 -150 11.5 -215t39.5 -141v-33q-68 0 -222.5 10.5t-207.5 10.5q-10 0 -15 3t-1 9z" />
<glyph unicode="&#xb7;" horiz-adv-x="737" d="M61 531q0 14 15.5 28t19.5 22q43 49 58 64.5t38 35.5q59 -26 101 -47t61.5 -30.5t31 -13t10.5 -14.5q-7 -8 -43 -57t-64 -71q-79 28 -124.5 42.5t-103.5 40.5z" />
<glyph unicode="&#xb8;" horiz-adv-x="821" d="M156 -322q10 14 22 39t19 33q78 -59 178 -59q113 0 112 71q0 29 -15 41.5t-58 12.5q-39 0 -67 -2t-64 -15q18 29 35.5 63t27.5 54l39 76l8 16l99 4l-21 -28l-29 -60l-6 -35q23 6 35 8.5t29 2.5q78 0 122 -31t44 -86q0 -74 -74 -124t-189 -50q-111 0 -247 69z" />
<glyph unicode="&#xb9;" horiz-adv-x="505" d="M37 1180q268 86 309 90v-6q-18 -113 -24 -244q-4 -135 -5 -295q2 -4 5 -6h10q6 -4 14 -4h14q18 0 37 2h19q10 2 16 2q8 0 23 -2v-12q-6 -10 -9 -39q-2 -29 -10 -41q-82 0 -229 6q-147 4 -166 4q-2 6 -2 10q0 6 4 14q2 10 2 15q2 6 4 28q2 20 12 33q33 -6 60 -10 q27 -2 47 -2q14 0 14 12q0 86 4 244t4 174q-4 14 -12 18q-16 0 -65 -10t-72 -10q-2 0 -4 29z" />
<glyph unicode="&#xba;" horiz-adv-x="655" d="M53 983q0 82 37 145.5t92.5 94t134.5 45.5q55 25 111 24q35 0 61.5 -9t51.5 -32q12 -6 19 -10t32 -61q27 -53 26 -138q0 -39 -8 -76.5t-38.5 -88t-84 -74t-129 -45t-102.5 -21.5q-55 0 -97 24.5t-69 78.5q-37 59 -37 143zM195 1004q0 -47 16 -86t51 -67t78 -28 q25 -2 44 14.5t55 60.5t36 132q0 41 -12 78q-18 49 -54 72.5t-79 23.5q-37 -12 -61.5 -29.5t-49 -60.5t-24.5 -110z" />
<glyph unicode="&#xbb;" horiz-adv-x="991" d="M39 43q2 2 0 10q25 29 66 90.5t115 180.5q82 127 139 223q10 16 20 33q-10 16 -20 34q-57 96 -139 226q-74 117 -115 179t-66 89q2 8 0 12l97 137q4 4 10 9q23 -39 41 -69t98 -166t133 -220q51 -82 92 -141.5t62 -79.5q-6 -8 -12 -19q8 8 12 0q-20 -20 -61.5 -79.5 t-92.5 -141.5q-53 -82 -133 -219t-98.5 -167t-40.5 -68q-6 4 -10 8zM385 43q2 2 0 10q25 29 66 90.5t115 180.5q82 127 139 223q10 16 20 33q-10 16 -20 34q-57 96 -139 226q-74 117 -115 179t-66 89q2 8 0 12l97 137q4 4 10 9q23 -39 41 -69t98 -166t133 -220 q51 -82 92 -141.5t62 -79.5q-6 -8 -12 -19q8 8 12 0q-20 -20 -61.5 -79.5t-92.5 -141.5q-53 -82 -133 -219t-98.5 -167t-40.5 -68q-6 4 -10 8z" />
<glyph unicode="&#xbc;" horiz-adv-x="1314" d="M37 1180q268 86 309 90v-6q-18 -113 -24 -244q-4 -135 -5 -295q2 -4 5 -6h10q6 -4 14 -4h14q18 0 37 2h19q10 2 16 2q8 0 23 -2v-12q-6 -10 -9 -39q-2 -29 -10 -41q-82 0 -229 6q-147 4 -166 4q-2 6 -2 10q0 6 4 14q2 10 2 15q2 6 4 28q2 20 12 33q33 -6 60 -10 q27 -2 47 -2q14 0 14 12q0 86 4 244t4 174q-4 14 -12 18q-16 0 -65 -10t-72 -10q-2 0 -4 29zM213 -2q80 180 186.5 382t277.5 512t175 325q6 8 129 23t147 15q6 0 13.5 -1t5.5 -5q-195 -303 -375 -612t-263 -468t-163 -165t-133 -6zM596 158v18q27 27 123 152 q106 135 143 178q45 51 99 112q47 55 53 62q6 4 6 6q6 0 90 2q88 4 90 4q37 0 37 -12q0 -10 -12 -49q-10 -29 -17 -72q-6 -45 -18 -129q-12 -86 -12 -162q-2 2 106 2q4 -2 0 -8l-55 -104l-4 -6h-41q-12 -23 -13 -37v-21v-18v-15v-14v-37q-4 -6 -90 -4q-84 0 -92 4q0 16 6 58 q10 76 11 88q0 2 -410 2zM799 272q0 -4 4 -8q29 0 110 -4q80 -2 88 -2q4 4 9 8q16 297 14 299l-33 -43q-35 -47 -47 -63q-33 -39 -88 -111q-57 -70 -57 -76z" />
<glyph unicode="&#xbd;" horiz-adv-x="1370" d="M37 1180q268 86 309 90v-6q-18 -113 -24 -244q-4 -135 -5 -295q2 -4 5 -6h10q6 -4 14 -4h14q18 0 37 2h19q10 2 16 2q8 0 23 -2v-12q-6 -10 -9 -39q-2 -29 -10 -41q-82 0 -229 6q-147 4 -166 4q-2 6 -2 10q0 6 4 14q2 10 2 15q2 6 4 28q2 20 12 33q33 -6 60 -10 q27 -2 47 -2q14 0 14 12q0 86 4 244t4 174q-4 14 -12 18q-16 0 -65 -10t-72 -10q-2 0 -4 29zM213 -2q80 180 186.5 382t277.5 512t175 325q6 8 129 23t147 15q6 0 13.5 -1t5.5 -5q-195 -303 -375 -612t-263 -468t-163 -165t-133 -6zM805 27l8 55q57 33 74 43q45 27 100 70 q178 141 172 256q-2 28 -4 36q-29 92 -94 88q-41 -2 -68 -49q-16 -31 -16 -61q0 -35 8 -51q6 -10 -59 -33q-63 -23 -70 -6q-16 39 -14 76q4 78 53 124q82 80 201 80q137 0 190 -102q27 -53 27 -98q0 -53 -23 -103q-23 -47 -53 -86q-31 -41 -53 -63q-25 -25 -92 -80 q0 -2 4 -6q6 -2 8 -4q35 0 227 16q-10 -92 -18 -102q-10 -4 -25 -4h-45q-68 0 -164 2q-143 2 -190 4q-27 0 -84 -2z" />
<glyph unicode="&#xbe;" horiz-adv-x="1296" d="M39 647v45q0 20 4 47q2 4 4 4q74 -31 137 -45q92 -20 156 13q51 31 53 77q0 47 -43 82q-33 27 -61 33q-29 6 -64 6q-33 0 -80 -8q-16 -2 -39 -8q-20 -6 -32 -8q-2 2 -2 4q0 4 2 6l245 264q0 8 -6 8q8 0 -57 0q-49 2 -86 0q-86 -2 -94 -2l-4 4q18 55 39 103q2 4 6 4 q61 0 274 -8q211 -8 211 -11q0 3 -106 -118q-109 -123 -134 -150q59 6 117 -22q68 -35 90 -109q2 -10 2 -35q0 -35 -12 -63q-12 -31 -51 -70q-37 -41 -109 -63q-70 -25 -149 -25q-51 0 -103 8q-51 8 -104 23q-4 4 -4 14zM213 -2q80 180 186.5 382t277.5 512t175 325 q6 8 129 23t147 15q6 0 13.5 -1t5.5 -5q-195 -303 -375 -612t-263 -468t-163 -165t-133 -6zM596 158v18q27 27 123 152q106 135 143 178q45 51 99 112q47 55 53 62q6 4 6 6q6 0 90 2q88 4 90 4q37 0 37 -12q0 -10 -12 -49q-10 -29 -17 -72q-6 -45 -18 -129q-12 -86 -12 -162 q-2 2 106 2q4 -2 0 -8l-55 -104l-4 -6h-41q-12 -23 -13 -37v-21v-18v-15v-14v-37q-4 -6 -90 -4q-84 0 -92 4q0 16 6 58q10 76 11 88q0 2 -410 2zM799 272q0 -4 4 -8q29 0 110 -4q80 -2 88 -2q4 4 9 8q16 297 14 299l-33 -43q-35 -47 -47 -63q-33 -39 -88 -111 q-57 -70 -57 -76z" />
<glyph unicode="&#xbf;" horiz-adv-x="819" d="M86 356v31q4 20 4 29q141 92 232.5 127t166.5 35q100 0 181 -58q18 -18 32.5 -37.5t20.5 -42.5q0 -96 -50 -176t-82 -122t-88.5 -112.5t-56.5 -131.5q0 -29 13 -60q31 -29 76 -28q31 0 73.5 15t81.5 28q14 -20 21.5 -66.5t11.5 -56.5l-8 -15q-100 -76 -206 -120t-222 -44 q-66 27 -84.5 36.5t-57.5 56.5t-39 125q0 33 16.5 71.5t62.5 89t89 95.5l19 8q31 49 63.5 104.5t32.5 100.5q0 41 -22 77q-31 37 -93 37l-34 -4q-35 -4 -73 -23.5t-73 -37.5q-8 27 -8 69zM145 721q100 98 228 182q100 -20 187 -42.5t202 -55.5v-8l-277 -164 q-86 18 -185 43.5t-148 40.5z" />
<glyph unicode="&#xc0;" horiz-adv-x="1320" d="M10 12q133 293 240.5 564.5t210.5 572.5q6 35 -20.5 78t-32.5 59q0 4 5 5t5 5q102 0 204.5 -4t174.5 -6q12 0 14 -2t52 -195.5t166 -502.5t286 -594l-8 -6q-98 0 -190.5 2t-184.5 4q-16 33 -32.5 115.5t-31.5 117.5q-31 109 -37 125.5t-32 42.5q-39 6 -104.5 8t-73.5 2 q-51 0 -102.5 -1t-100.5 -1q-20 0 -31.5 -18t-37 -108.5t-75.5 -262.5q0 -6 -8 -10h-248q-4 6 -4 8t-4 2zM359 1616q0 23 16 39t51 35.5t92 38.5q127 -70 219.5 -137.5t120.5 -108.5q4 -9 0 -13q-66 -31 -131 -59q-59 45 -155.5 90t-210.5 90q-2 8 -2 25zM471 588 q0 -27 8 -27q72 -14 148 -14q49 0 102 6q12 6 17 17.5t-1 17.5q-14 55 -26 91t-52 143.5t-44 109.5q-2 -6 -11 -6q-29 -51 -50 -101.5t-91 -236.5z" />
<glyph unicode="&#xc1;" horiz-adv-x="1320" d="M10 12q133 293 240.5 564.5t210.5 572.5q6 35 -20.5 78t-32.5 59q0 4 5 5t5 5q102 0 204.5 -4t174.5 -6q12 0 14 -2t52 -195.5t166 -502.5t286 -594l-8 -6q-98 0 -190.5 2t-184.5 4q-16 33 -32.5 115.5t-31.5 117.5q-31 109 -37 125.5t-32 42.5q-39 6 -104.5 8t-73.5 2 q-51 0 -102.5 -1t-100.5 -1q-20 0 -31.5 -18t-37 -108.5t-75.5 -262.5q0 -6 -8 -10h-248q-4 6 -4 8t-4 2zM389 1470q-4 4 0 13q39 55 142.5 124.5t197.5 121.5q53 -16 91 -38t53.5 -37.5t15.5 -39.5q0 -17 -2 -23q-143 -57 -221 -93t-146 -87q-29 6 -74 30.5t-57 28.5z M471 588q0 -27 8 -27q72 -14 148 -14q49 0 102 6q12 6 17 17.5t-1 17.5q-14 55 -26 91t-52 143.5t-44 109.5q-2 -6 -11 -6q-29 -51 -50 -101.5t-91 -236.5z" />
<glyph unicode="&#xc2;" horiz-adv-x="1320" d="M10 12q133 293 240.5 564.5t210.5 572.5q6 35 -20.5 78t-32.5 59q0 4 5 5t5 5q102 0 204.5 -4t174.5 -6q12 0 14 -2t52 -195.5t166 -502.5t286 -594l-8 -6q-98 0 -190.5 2t-184.5 4q-16 33 -32.5 115.5t-31.5 117.5q-31 109 -37 125.5t-32 42.5q-39 6 -104.5 8t-73.5 2 q-51 0 -102.5 -1t-100.5 -1q-20 0 -31.5 -18t-37 -108.5t-75.5 -262.5q0 -6 -8 -10h-248q-4 6 -4 8t-4 2zM278 1470v23q33 45 176.5 139t171.5 94q29 0 171.5 -92t177.5 -141v-23q-66 -27 -132 -53q-39 29 -96 61.5t-121 59.5q-72 -33 -121 -59.5t-96 -61.5q-31 6 -77 28.5 t-54 24.5zM471 588q0 -27 8 -27q72 -14 148 -14q49 0 102 6q12 6 17 17.5t-1 17.5q-14 55 -26 91t-52 143.5t-44 109.5q-2 -6 -11 -6q-29 -51 -50 -101.5t-91 -236.5z" />
<glyph unicode="&#xc3;" horiz-adv-x="1320" d="M10 12q133 293 240.5 564.5t210.5 572.5q6 35 -20.5 78t-32.5 59q0 4 5 5t5 5q102 0 204.5 -4t174.5 -6q12 0 14 -2t52 -195.5t166 -502.5t286 -594l-8 -6q-98 0 -190.5 2t-184.5 4q-16 33 -32.5 115.5t-31.5 117.5q-31 109 -37 125.5t-32 42.5q-39 6 -104.5 8t-73.5 2 q-51 0 -102.5 -1t-100.5 -1q-20 0 -31.5 -18t-37 -108.5t-75.5 -262.5q0 -6 -8 -10h-248q-4 6 -4 8t-4 2zM253 1491v22q39 53 114 106.5t124 53.5t130 -26.5t165 -55.5q37 0 70.5 31t48.5 35q8 -2 16 -2q6 -23 28.5 -63t28.5 -56q-49 -39 -96 -68.5t-96 -29.5 q-29 0 -140.5 44t-158.5 44q-29 0 -53.5 -30t-48.5 -58q-35 18 -66 30.5t-66 22.5zM471 588q0 -27 8 -27q72 -14 148 -14q49 0 102 6q12 6 17 17.5t-1 17.5q-14 55 -26 91t-52 143.5t-44 109.5q-2 -6 -11 -6q-29 -51 -50 -101.5t-91 -236.5z" />
<glyph unicode="&#xc4;" horiz-adv-x="1320" d="M10 12q133 293 240.5 564.5t210.5 572.5q6 35 -20.5 78t-32.5 59q0 4 5 5t5 5q102 0 204.5 -4t174.5 -6q12 0 14 -2t52 -195.5t166 -502.5t286 -594l-8 -6q-98 0 -190.5 2t-184.5 4q-16 33 -32.5 115.5t-31.5 117.5q-31 109 -37 125.5t-32 42.5q-39 6 -104.5 8t-73.5 2 q-51 0 -102.5 -1t-100.5 -1q-20 0 -31.5 -18t-37 -108.5t-75.5 -262.5q0 -6 -8 -10h-248q-4 6 -4 8t-4 2zM266 1530q-6 8 7 19.5t34.5 34t57.5 60t83 82.5q35 -12 80 -35.5t68 -35.5q6 -8 28.5 -16.5t28.5 -24.5q-43 -43 -122 -106.5t-95 -77.5q-41 14 -85 42.5t-85 57.5z M471 588q0 -27 8 -27q72 -14 148 -14q49 0 102 6q12 6 17 17.5t-1 17.5q-14 55 -26 91t-52 143.5t-44 109.5q-2 -6 -11 -6q-29 -51 -50 -101.5t-91 -236.5zM727 1530q-6 8 7 19.5t34.5 34t57.5 60t83 82.5q35 -12 80 -35.5t67 -35.5q6 -8 29 -16.5t29 -24.5 q-43 -43 -122 -106.5t-95 -77.5q-41 14 -85 42.5t-85 57.5z" />
<glyph unicode="&#xc5;" horiz-adv-x="1320" d="M10 12q133 293 240.5 564.5t210.5 572.5q6 35 -20.5 78t-32.5 59q0 4 5 5t5 5q102 0 204.5 -4t174.5 -6q12 0 14 -2t52 -195.5t166 -502.5t286 -594l-8 -6q-98 0 -190.5 2t-184.5 4q-16 33 -32.5 115.5t-31.5 117.5q-31 109 -37 125.5t-32 42.5q-39 6 -104.5 8t-73.5 2 q-51 0 -102.5 -1t-100.5 -1q-20 0 -31.5 -18t-37 -108.5t-75.5 -262.5q0 -6 -8 -10h-248q-4 6 -4 8t-4 2zM414 1565q0 86 61.5 149.5t149.5 63.5q90 0 151.5 -61.5t61.5 -151.5q0 -88 -61.5 -149.5t-151.5 -61.5q-88 0 -149.5 61.5t-61.5 149.5zM471 588q0 -27 8 -27 q72 -14 148 -14q49 0 102 6q12 6 17 17.5t-1 17.5q-14 55 -26 91t-52 143.5t-44 109.5q-2 -6 -11 -6q-29 -51 -50 -101.5t-91 -236.5zM514 1565q0 -47 31.5 -79t79.5 -32q47 0 77.5 31t30.5 80q0 47 -30.5 77.5t-77.5 30.5q-45 0 -78 -30.5t-33 -77.5z" />
<glyph unicode="&#xc6;" horiz-adv-x="1847" d="M10 12q133 293 240.5 564.5t210.5 572.5q6 35 -20.5 78t-32.5 59q0 4 5 5t5 5q80 0 271.5 -4t203.5 -4q135 0 227 7.5t148.5 18.5t68.5 15q16 0 17 -49q0 -31 7 -96.5t7 -85.5q-10 -4 -18 -8q-82 0 -261.5 4t-191.5 4q-14 -14 -14 -25q14 -59 48 -150.5t64 -170.5 q6 -6 11.5 -9.5t33 -7.5t71.5 -6t101 -2q86 0 153 6t155 19q20 -53 34.5 -109.5t26.5 -107.5q-10 -4 -20 -9q-59 0 -195.5 10.5t-179.5 10.5q-51 0 -101 -6q-14 -14 -12 -17q18 -66 32.5 -105.5t76.5 -174.5q4 -14 15 -27.5t28 -13.5q96 -12 198 -13q78 0 143.5 8.5 t121.5 28.5q12 0 18 -7t14 -38q43 -94 72 -192q-74 0 -231.5 6t-241.5 6q-86 0 -219 -5t-168 -5q-16 33 -32.5 115.5t-31.5 117.5q-31 109 -37 125.5t-32 42.5q-39 6 -104.5 8t-73.5 2q-51 0 -102.5 -1t-100.5 -1q-20 0 -31.5 -18t-37 -108.5t-75.5 -262.5q0 -6 -8 -10h-248 q-4 6 -4 8t-4 2zM471 588q0 -27 8 -27q72 -14 148 -14q49 0 102 6q12 6 17 17.5t-1 17.5q-14 55 -26 91t-52 143.5t-44 109.5q-2 -6 -11 -6q-29 -51 -50 -101.5t-91 -236.5z" />
<glyph unicode="&#xc7;" horiz-adv-x="1585" d="M80 598q0 115 32.5 225.5t94.5 196.5q227 279 600 278q92 12 158.5 19.5t119.5 7.5q41 0 112 -9t221.5 -93.5t150.5 -102.5q0 -12 -8.5 -18t-16.5 -6q-125 -53 -250 -105h-24q-86 94 -194.5 146.5t-231.5 52.5q-141 -23 -256 -121t-157 -218t-42 -228q0 -115 40 -217.5 t120 -178.5q66 -57 142.5 -91t158.5 -34q47 0 218 43t431 197q-25 -119 -49 -205q-27 -82 -39 -123l-14 -8q-111 -14 -216.5 -19t-256.5 -5l-27 -58l-6 -35q23 6 35 8.5t28 2.5q78 0 122 -31t44 -86q0 -74 -73.5 -124t-188.5 -50q-111 0 -248 69q10 14 22.5 39t18.5 33 q78 -59 178 -59q113 0 113 71q0 29 -15.5 41.5t-58.5 12.5q-39 0 -66.5 -2t-64.5 -15q18 29 36 63t28 54l35 70l-48 2q-27 -4 -56.5 -4h-45.5q-168 0 -297 57t-219 201.5t-90 355.5z" />
<glyph unicode="&#xc8;" horiz-adv-x="1052" d="M109 1298l8 9q84 0 277.5 -10.5t262.5 -10.5q100 0 160 5t108 14.5t62 13.5q8 0 8 -10t-8 -39q-12 -31 -30.5 -100.5t-22.5 -82.5q-10 -4 -21 -8q-80 0 -257 4t-193 4q-18 -14 -23 -24q-4 -27 -6 -64.5t-2 -74.5q0 -31 2 -92.5t2 -90.5q2 -6 17 -12q49 -8 91 -10t101 -2 q86 0 154.5 6t161.5 18q0 -45 -7.5 -113.5t-11.5 -103.5q-12 -4 -22 -8q-57 0 -189.5 10.5t-179.5 10.5q-49 0 -102 -7q-18 -14 -19 -16q-2 -16 -2 -35.5v-29.5q0 -35 4 -107t4 -109q0 -41 29 -40q92 -12 194 -13q76 0 148 8.5t131 28.5q16 0 16 -22v-23q4 -27 4 -50.5 v-45.5v-35q0 -18 -1 -33.5t-3 -27.5q-74 0 -229.5 6t-237.5 6l-368 -4q-4 6 -6 8q23 145 30 299t7 352v43v39v33v29v26q0 39 -1.5 78t-1.5 80v22q0 78 -14 161t-24 140zM248 1616q0 23 16 39t51 35.5t92 38.5q127 -70 219.5 -137.5t120.5 -108.5q4 -9 0 -13 q-66 -31 -131 -59q-59 45 -155.5 90t-210.5 90q-2 8 -2 25z" />
<glyph unicode="&#xc9;" horiz-adv-x="1052" d="M109 1298l8 9q84 0 277.5 -10.5t262.5 -10.5q100 0 160 5t108 14.5t62 13.5q8 0 8 -10t-8 -39q-12 -31 -30.5 -100.5t-22.5 -82.5q-10 -4 -21 -8q-80 0 -257 4t-193 4q-18 -14 -23 -24q-4 -27 -6 -64.5t-2 -74.5q0 -31 2 -92.5t2 -90.5q2 -6 17 -12q49 -8 91 -10t101 -2 q86 0 154.5 6t161.5 18q0 -45 -7.5 -113.5t-11.5 -103.5q-12 -4 -22 -8q-57 0 -189.5 10.5t-179.5 10.5q-49 0 -102 -7q-18 -14 -19 -16q-2 -16 -2 -35.5v-29.5q0 -35 4 -107t4 -109q0 -41 29 -40q92 -12 194 -13q76 0 148 8.5t131 28.5q16 0 16 -22v-23q4 -27 4 -50.5 v-45.5v-35q0 -18 -1 -33.5t-3 -27.5q-74 0 -229.5 6t-237.5 6l-368 -4q-4 6 -6 8q23 145 30 299t7 352v43v39v33v29v26q0 39 -1.5 78t-1.5 80v22q0 78 -14 161t-24 140zM241 1470q-4 4 0 13q39 55 142.5 124.5t197.5 121.5q53 -16 91 -38t53.5 -37.5t15.5 -39.5 q0 -17 -2 -23q-143 -57 -221 -93t-146 -87q-29 6 -74 30.5t-57 28.5z" />
<glyph unicode="&#xca;" horiz-adv-x="1052" d="M109 1298l8 9q84 0 277.5 -10.5t262.5 -10.5q100 0 160 5t108 14.5t62 13.5q8 0 8 -10t-8 -39q-12 -31 -30.5 -100.5t-22.5 -82.5q-10 -4 -21 -8q-80 0 -257 4t-193 4q-18 -14 -23 -24q-4 -27 -6 -64.5t-2 -74.5q0 -31 2 -92.5t2 -90.5q2 -6 17 -12q49 -8 91 -10t101 -2 q86 0 154.5 6t161.5 18q0 -45 -7.5 -113.5t-11.5 -103.5q-12 -4 -22 -8q-57 0 -189.5 10.5t-179.5 10.5q-49 0 -102 -7q-18 -14 -19 -16q-2 -16 -2 -35.5v-29.5q0 -35 4 -107t4 -109q0 -41 29 -40q92 -12 194 -13q76 0 148 8.5t131 28.5q16 0 16 -22v-23q4 -27 4 -50.5 v-45.5v-35q0 -18 -1 -33.5t-3 -27.5q-74 0 -229.5 6t-237.5 6l-368 -4q-4 6 -6 8q23 145 30 299t7 352v43v39v33v29v26q0 39 -1.5 78t-1.5 80v22q0 78 -14 161t-24 140zM192 1470v23q33 45 176.5 139t171.5 94q29 0 171.5 -92t177.5 -141v-23q-66 -27 -132 -53 q-39 29 -96 61.5t-121 59.5q-72 -33 -121 -59.5t-96 -61.5q-31 6 -77 28.5t-54 24.5z" />
<glyph unicode="&#xcb;" horiz-adv-x="1052" d="M109 1298l8 9q84 0 277.5 -10.5t262.5 -10.5q100 0 160 5t108 14.5t62 13.5q8 0 8 -10t-8 -39q-12 -31 -30.5 -100.5t-22.5 -82.5q-10 -4 -21 -8q-80 0 -257 4t-193 4q-18 -14 -23 -24q-4 -27 -6 -64.5t-2 -74.5q0 -31 2 -92.5t2 -90.5q2 -6 17 -12q49 -8 91 -10t101 -2 q86 0 154.5 6t161.5 18q0 -45 -7.5 -113.5t-11.5 -103.5q-12 -4 -22 -8q-57 0 -189.5 10.5t-179.5 10.5q-49 0 -102 -7q-18 -14 -19 -16q-2 -16 -2 -35.5v-29.5q0 -35 4 -107t4 -109q0 -41 29 -40q92 -12 194 -13q76 0 148 8.5t131 28.5q16 0 16 -22v-23q4 -27 4 -50.5 v-45.5v-35q0 -18 -1 -33.5t-3 -27.5q-74 0 -229.5 6t-237.5 6l-368 -4q-4 6 -6 8q23 145 30 299t7 352v43v39v33v29v26q0 39 -1.5 78t-1.5 80v22q0 78 -14 161t-24 140zM113 1530q-6 8 7 19.5t34.5 34t57.5 60t83 82.5q35 -12 80 -35.5t68 -35.5q6 -8 28.5 -16.5t28.5 -24.5 q-43 -43 -122 -106.5t-95 -77.5q-41 14 -85 42.5t-85 57.5zM574 1530q-6 8 7 19.5t34.5 34t57.5 60t83 82.5q35 -12 80 -35.5t67 -35.5q6 -8 29 -16.5t29 -24.5q-43 -43 -122 -106.5t-95 -77.5q-41 14 -85 42.5t-85 57.5z" />
<glyph unicode="&#xcc;" horiz-adv-x="563" d="M27 1616q0 23 16 39t51 35.5t92 38.5q127 -70 219.5 -137.5t120.5 -108.5q4 -9 0 -13q-66 -31 -131 -59q-59 45 -155.5 90t-210.5 90q-2 8 -2 25zM96 2q45 336 45 721q0 94 -14 278.5t-14 266.5q0 10 5 12t5 6h323l11 -8q-18 -145 -26.5 -298t-8.5 -316q0 -330 35 -662 l-11 -10h-342q-8 0 -8 10z" />
<glyph unicode="&#xcd;" horiz-adv-x="563" d="M57 1470q-4 4 0 13q39 55 142.5 124.5t197.5 121.5q53 -16 91 -38t53.5 -37.5t15.5 -39.5q0 -17 -2 -23q-143 -57 -221 -93t-146 -87q-29 6 -74 30.5t-57 28.5zM96 2q45 336 45 721q0 94 -14 278.5t-14 266.5q0 10 5 12t5 6h323l11 -8q-18 -145 -26.5 -298t-8.5 -316 q0 -330 35 -662l-11 -10h-342q-8 0 -8 10z" />
<glyph unicode="&#xce;" horiz-adv-x="563" d="M-66 1470v23q33 45 176.5 139t171.5 94q29 0 171.5 -92t177.5 -141v-23q-66 -27 -132 -53q-39 29 -96 61.5t-121 59.5q-72 -33 -121 -59.5t-96 -61.5q-31 6 -77 28.5t-54 24.5zM96 2q45 336 45 721q0 94 -14 278.5t-14 266.5q0 10 5 12t5 6h323l11 -8 q-18 -145 -26.5 -298t-8.5 -316q0 -330 35 -662l-11 -10h-342q-8 0 -8 10z" />
<glyph unicode="&#xcf;" horiz-adv-x="563" d="M-143 1530q-6 8 7 19.5t34.5 34t57.5 60t83 82.5q35 -12 80 -35.5t68 -35.5q6 -8 28.5 -16.5t28.5 -24.5q-43 -43 -122 -106.5t-95 -77.5q-41 14 -85 42.5t-85 57.5zM96 2q45 336 45 721q0 94 -14 278.5t-14 266.5q0 10 5 12t5 6h323l11 -8q-18 -145 -26.5 -298 t-8.5 -316q0 -330 35 -662l-11 -10h-342q-8 0 -8 10zM318 1530q-6 8 7 19.5t34.5 34t57.5 60t83 82.5q35 -12 80 -35.5t67 -35.5q6 -8 29 -16.5t29 -24.5q-43 -43 -122 -106.5t-95 -77.5q-41 14 -85 42.5t-85 57.5z" />
<glyph unicode="&#xd0;" horiz-adv-x="1536" d="M57 -8q8 31 37 93t36 124.5t12 179.5t5 287v39v35v30v27v22q0 35 -1 70t-1 72v20q0 150 -57 273q-2 20 6 20q115 0 228.5 -2t228.5 -4h37q141 0 270 14h82q158 0 257 -42.5t179 -200.5t80 -349q0 -145 -49 -281t-145 -237q-86 -98 -201 -142t-231.5 -53.5t-313.5 -9.5 q-82 0 -243.5 7.5t-215.5 7.5zM58 577v115h575v-115h-575zM424 371q0 -47 2 -96.5t8 -96.5q10 -20 25.5 -34.5t58.5 -33t111 -18.5q98 0 190 52.5t178 140.5q70 84 111 189.5t41 215.5q0 47 -8.5 96.5t-26.5 94.5q-53 141 -138 198.5t-163 73.5t-100 16q-43 0 -108.5 -28.5 t-99.5 -42t-44 -81t-19 -130.5q0 -109 -9 -303.5t-9 -212.5z" />
<glyph unicode="&#xd1;" horiz-adv-x="1587" d="M29 1292h325q6 2 13.5 2h9.5q31 0 53.5 -13t34.5 -31.5t24 -35.5l703 -862v643q0 53 -4 88t-8 69t-10.5 65.5t-16.5 74.5h397q-49 -43 -70.5 -95t-27.5 -92t-6 -81v-731q0 -45 1 -85t17 -89q29 -74 90 -127l-426 2l-733 880v-679q0 -18 1 -38t16 -63l20 -102h-371 q29 41 43.5 72.5t25.5 71.5t13 71t2 86v663v27q0 63 -3 88t-18 70t-24.5 60.5t-70.5 90.5zM389 1491v22q39 53 114 106.5t124 53.5t130 -26.5t165 -55.5q37 0 70.5 31t48.5 35q8 -2 16 -2q6 -23 28.5 -63t28.5 -56q-49 -39 -96 -68.5t-96 -29.5q-29 0 -140.5 44t-158.5 44 q-29 0 -53.5 -30t-48.5 -58q-35 18 -66 30.5t-66 22.5z" />
<glyph unicode="&#xd2;" horiz-adv-x="1771" d="M74 580q0 123 48 261t203.5 265t333.5 154q123 12 179.5 20t102.5 22.5t84 18.5t75 4q164 0 304 -83t212 -220q37 -68 55.5 -151t18.5 -164q0 -115 -33 -223.5t-121 -229.5t-261 -193.5t-382 -72.5q-117 -27 -227 -27q-129 0 -239 39t-187.5 127t-121.5 207t-44 246z M391 598q0 -104 48 -222t171 -197t271 -79q250 35 368.5 206t118.5 358q0 153 -70 266q-68 115 -143.5 161t-154 65.5t-123.5 19.5q-78 0 -146.5 -35t-152.5 -103q-88 -88 -137.5 -202.5t-49.5 -237.5zM580 1616q0 23 16 39t51 35.5t92 38.5q127 -70 219.5 -137.5 t120.5 -108.5q4 -9 0 -13q-66 -31 -131 -59q-59 45 -155.5 90t-210.5 90q-2 8 -2 25z" />
<glyph unicode="&#xd3;" horiz-adv-x="1771" d="M74 580q0 123 48 261t203.5 265t333.5 154q123 12 179.5 20t102.5 22.5t84 18.5t75 4q164 0 304 -83t212 -220q37 -68 55.5 -151t18.5 -164q0 -115 -33 -223.5t-121 -229.5t-261 -193.5t-382 -72.5q-117 -27 -227 -27q-129 0 -239 39t-187.5 127t-121.5 207t-44 246z M391 598q0 -104 48 -222t171 -197t271 -79q250 35 368.5 206t118.5 358q0 153 -70 266q-68 115 -143.5 161t-154 65.5t-123.5 19.5q-78 0 -146.5 -35t-152.5 -103q-88 -88 -137.5 -202.5t-49.5 -237.5zM573 1470q-4 4 0 13q39 55 142.5 124.5t197.5 121.5q53 -16 91 -38 t53.5 -37.5t15.5 -39.5q0 -17 -2 -23q-143 -57 -221 -93t-146 -87q-29 6 -74 30.5t-57 28.5z" />
<glyph unicode="&#xd4;" horiz-adv-x="1771" d="M74 580q0 123 48 261t203.5 265t333.5 154q123 12 179.5 20t102.5 22.5t84 18.5t75 4q164 0 304 -83t212 -220q37 -68 55.5 -151t18.5 -164q0 -115 -33 -223.5t-121 -229.5t-261 -193.5t-382 -72.5q-117 -27 -227 -27q-129 0 -239 39t-187.5 127t-121.5 207t-44 246z M391 598q0 -104 48 -222t171 -197t271 -79q250 35 368.5 206t118.5 358q0 153 -70 266q-68 115 -143.5 161t-154 65.5t-123.5 19.5q-78 0 -146.5 -35t-152.5 -103q-88 -88 -137.5 -202.5t-49.5 -237.5zM487 1470v23q33 45 176.5 139t171.5 94q29 0 171.5 -92t177.5 -141v-23 q-66 -27 -132 -53q-39 29 -96 61.5t-121 59.5q-72 -33 -121 -59.5t-96 -61.5q-31 6 -77 28.5t-54 24.5z" />
<glyph unicode="&#xd5;" horiz-adv-x="1771" d="M74 580q0 123 48 261t203.5 265t333.5 154q123 12 179.5 20t102.5 22.5t84 18.5t75 4q164 0 304 -83t212 -220q37 -68 55.5 -151t18.5 -164q0 -115 -33 -223.5t-121 -229.5t-261 -193.5t-382 -72.5q-117 -27 -227 -27q-129 0 -239 39t-187.5 127t-121.5 207t-44 246z M391 598q0 -104 48 -222t171 -197t271 -79q250 35 368.5 206t118.5 358q0 153 -70 266q-68 115 -143.5 161t-154 65.5t-123.5 19.5q-78 0 -146.5 -35t-152.5 -103q-88 -88 -137.5 -202.5t-49.5 -237.5zM499 1491v22q39 53 114 106.5t124 53.5t130 -26.5t165 -55.5 q37 0 70.5 31t48.5 35q8 -2 16 -2q6 -23 28.5 -63t28.5 -56q-49 -39 -96 -68.5t-96 -29.5q-29 0 -140.5 44t-158.5 44q-29 0 -53.5 -30t-48.5 -58q-35 18 -66 30.5t-66 22.5z" />
<glyph unicode="&#xd6;" horiz-adv-x="1771" d="M74 580q0 123 48 261t203.5 265t333.5 154q123 12 179.5 20t102.5 22.5t84 18.5t75 4q164 0 304 -83t212 -220q37 -68 55.5 -151t18.5 -164q0 -115 -33 -223.5t-121 -229.5t-261 -193.5t-382 -72.5q-117 -27 -227 -27q-129 0 -239 39t-187.5 127t-121.5 207t-44 246z M391 598q0 -104 48 -222t171 -197t271 -79q250 35 368.5 206t118.5 358q0 153 -70 266q-68 115 -143.5 161t-154 65.5t-123.5 19.5q-78 0 -146.5 -35t-152.5 -103q-88 -88 -137.5 -202.5t-49.5 -237.5zM440 1530q-6 8 7 19.5t34.5 34t57.5 60t83 82.5q35 -12 80 -35.5 t68 -35.5q6 -8 28.5 -16.5t28.5 -24.5q-43 -43 -122 -106.5t-95 -77.5q-41 14 -85 42.5t-85 57.5zM901 1530q-6 8 7 19.5t34.5 34t57.5 60t83 82.5q35 -12 80 -35.5t67 -35.5q6 -8 29 -16.5t29 -24.5q-43 -43 -122 -106.5t-95 -77.5q-41 14 -85 42.5t-85 57.5z" />
<glyph unicode="&#xd7;" horiz-adv-x="960" d="M61 23q82 117 186.5 244.5t269.5 323t169 204.5q6 6 91 -2.5t102 -10.5q4 -2 9 -4t3 -4q-180 -186 -351 -379.5t-252 -295t-135.5 -93.5t-91.5 17zM61 780q37 8 91.5 16.5t135.5 -92t252 -295t351 -380.5q2 -2 -3 -4t-9 -5q-16 -2 -101.5 -10t-91.5 -2q-4 8 -169 204 t-269.5 324t-186.5 244z" />
<glyph unicode="&#xd8;" horiz-adv-x="1771" d="M-16 -53l229 213q-68 86 -103.5 193.5t-35.5 224.5q0 121 48 261t203.5 267t333.5 154q123 12 179.5 20t102.5 22.5t84 18.5t73 4q160 0 301 -82l47 45q2 2 85 8.5t155 6.5h51q2 -5 6 -7l-201 -170q43 -49 77 -110.5t52.5 -144.5t18.5 -164q0 -115 -33 -223.5 t-121 -229.5t-261 -193.5t-382 -72.5q-117 -27 -227 -27q-84 0 -161 17.5t-143 52.5l-90 -86q-33 -2 -74.5 -3t-91.5 -1q-82 0 -122 6zM391 598q0 -104 41 -209l8 -20l758 688q-47 43 -100.5 65.5t-114.5 38t-106 15.5q-78 0 -146.5 -35t-152.5 -103q-88 -88 -137.5 -202.5 t-49.5 -237.5zM557 219q137 -119 324 -119q250 35 343 171.5t118.5 219t25.5 171.5q0 144 -63 253q-102 -92 -280.5 -257.5t-249 -231.5t-218.5 -207z" />
<glyph unicode="&#xd9;" horiz-adv-x="1515" d="M84 1288l8 4q94 0 188.5 2t186.5 4l6 -10q-20 -102 -29.5 -236t-9.5 -274q0 -66 2 -199t2 -198q12 -86 46 -150.5t106 -85.5q41 -8 92 -8q170 0 263 108.5t124 242t31 311.5q0 63 -4 207.5t-4 146.5q0 27 -9.5 78t-9.5 59q84 0 170 2t174 4l6 -22q-25 -102 -35 -225 t-10 -244q0 -109 11.5 -359.5t11.5 -322.5q17 -58 33 -115l-336 -20q-6 10 -6 37v30q0 29 -11 45q-29 0 -90 -18.5t-77.5 -20.5t-197.5 -52t-286 -50q-137 0 -223 88q-25 29 -40 73t-22 93q0 195 -3 332t-6 332.5t-3 267.5q-10 23 -24.5 69t-24.5 74zM494 1616q0 23 16 39 t51 35.5t92 38.5q127 -70 219.5 -137.5t120.5 -108.5q4 -9 0 -13q-66 -31 -131 -59q-59 45 -155.5 90t-210.5 90q-2 8 -2 25z" />
<glyph unicode="&#xda;" horiz-adv-x="1515" d="M84 1288l8 4q94 0 188.5 2t186.5 4l6 -10q-20 -102 -29.5 -236t-9.5 -274q0 -66 2 -199t2 -198q12 -86 46 -150.5t106 -85.5q41 -8 92 -8q170 0 263 108.5t124 242t31 311.5q0 63 -4 207.5t-4 146.5q0 27 -9.5 78t-9.5 59q84 0 170 2t174 4l6 -22q-25 -102 -35 -225 t-10 -244q0 -109 11.5 -359.5t11.5 -322.5q17 -58 33 -115l-336 -20q-6 10 -6 37v30q0 29 -11 45q-29 0 -90 -18.5t-77.5 -20.5t-197.5 -52t-286 -50q-137 0 -223 88q-25 29 -40 73t-22 93q0 195 -3 332t-6 332.5t-3 267.5q-10 23 -24.5 69t-24.5 74zM500 1470q-4 4 0 13 q39 55 142.5 124.5t197.5 121.5q53 -16 91 -38t53.5 -37.5t15.5 -39.5q0 -17 -2 -23q-143 -57 -221 -93t-146 -87q-29 6 -74 30.5t-57 28.5z" />
<glyph unicode="&#xdb;" horiz-adv-x="1515" d="M84 1288l8 4q94 0 188.5 2t186.5 4l6 -10q-20 -102 -29.5 -236t-9.5 -274q0 -66 2 -199t2 -198q12 -86 46 -150.5t106 -85.5q41 -8 92 -8q170 0 263 108.5t124 242t31 311.5q0 63 -4 207.5t-4 146.5q0 27 -9.5 78t-9.5 59q84 0 170 2t174 4l6 -22q-25 -102 -35 -225 t-10 -244q0 -109 11.5 -359.5t11.5 -322.5q17 -58 33 -115l-336 -20q-6 10 -6 37v30q0 29 -11 45q-29 0 -90 -18.5t-77.5 -20.5t-197.5 -52t-286 -50q-137 0 -223 88q-25 29 -40 73t-22 93q0 195 -3 332t-6 332.5t-3 267.5q-10 23 -24.5 69t-24.5 74zM426 1470v23 q33 45 176.5 139t171.5 94q29 0 171.5 -92t177.5 -141v-23q-66 -27 -132 -53q-39 29 -96 61.5t-121 59.5q-72 -33 -121 -59.5t-96 -61.5q-31 6 -77 28.5t-54 24.5z" />
<glyph unicode="&#xdc;" horiz-adv-x="1515" d="M84 1288l8 4q94 0 188.5 2t186.5 4l6 -10q-20 -102 -29.5 -236t-9.5 -274q0 -66 2 -199t2 -198q12 -86 46 -150.5t106 -85.5q41 -8 92 -8q170 0 263 108.5t124 242t31 311.5q0 63 -4 207.5t-4 146.5q0 27 -9.5 78t-9.5 59q84 0 170 2t174 4l6 -22q-25 -102 -35 -225 t-10 -244q0 -109 11.5 -359.5t11.5 -322.5q17 -58 33 -115l-336 -20q-6 10 -6 37v30q0 29 -11 45q-29 0 -90 -18.5t-77.5 -20.5t-197.5 -52t-286 -50q-137 0 -223 88q-25 29 -40 73t-22 93q0 195 -3 332t-6 332.5t-3 267.5q-10 23 -24.5 69t-24.5 74zM358 1530q-6 8 7 19.5 t34.5 34t57.5 60t83 82.5q35 -12 80 -35.5t68 -35.5q6 -8 28.5 -16.5t28.5 -24.5q-43 -43 -122 -106.5t-95 -77.5q-41 14 -85 42.5t-85 57.5zM819 1530q-6 8 7 19.5t34.5 34t57.5 60t83 82.5q35 -12 80 -35.5t67 -35.5q6 -8 29 -16.5t29 -24.5q-43 -43 -122 -106.5 t-95 -77.5q-41 14 -85 42.5t-85 57.5z" />
<glyph unicode="&#xdd;" horiz-adv-x="1275" d="M4 1294h199.5h140.5q145 -311 291 -622q16 -10 18 -10q14 20 105.5 185t220.5 447h285q0 -4 2 -8q-8 -18 -51.5 -79.5t-124 -204t-131 -244t-150.5 -322.5q-16 -29 -22.5 -63.5t-6.5 -77.5q0 -31 4 -86t4 -80q8 -20 11.5 -70.5t3.5 -52.5q-78 -6 -156 -6h-22h-71t-71 2 h-18l-8 8q0 41 4 121t4 121q0 61 -5 99t-22 89q-80 201 -183 401.5t-226 399.5q0 10 -16.5 25.5t-8.5 27.5zM528 1454q-4 4 0 13q39 55 142.5 124.5t197.5 121.5q53 -16 91 -38t53.5 -37.5t15.5 -39.5q0 -17 -2 -23q-143 -57 -221 -93t-146 -87q-29 6 -74 30.5t-57 28.5z " />
<glyph unicode="&#xde;" horiz-adv-x="1280" d="M104 1597q0 10 5.5 12.5t5.5 6.5h323l11 -8q-18 -145 -27 -297q-6 -105 -8 -211q98 2 157 6q117 6 256 27q145 0 210 -42t106 -120q45 -90 45 -201q0 -156 -86 -265.5t-208 -160.5t-261 -51q-43 0 -93.5 6t-95.5 16q-27 0 -26 -18q0 -96 5 -178t32 -316l-11 -4 q-78 0 -200.5 -3t-126.5 -3q-6 8 -4 10q18 115 25 233t-1 635t-18 660q-14 184 -15 266zM420 694q8 -135 20 -270q16 -4 27 -4h25q166 0 274 114.5t108 251.5q0 68 -30 134q-27 53 -66 78.5t-84 25.5q-27 0 -50 -6t-93 -39t-102 -137q-20 -63 -29 -148z" />
<glyph unicode="&#xdf;" horiz-adv-x="1652" d="M10 350q0 41 10.5 85t26.5 81q0 6 16 10q18 0 37 -1t37 -1q45 0 64.5 7.5t19.5 25.5q0 104 6 282.5t6 288.5q0 37 28 76t60.5 49.5t67.5 10.5q41 0 110.5 -18.5t90.5 -20.5q80 63 186 63q63 0 124 -31.5t147 -113.5t86 -166q0 -102 -102.5 -186t-102.5 -136 q0 -23 23.5 -54.5t46 -41.5t56 -14t74.5 -4q43 0 131.5 8t129.5 8q109 0 164 -43t55 -168q0 -100 -63.5 -186t-158.5 -119q-37 -20 -85 -29.5t-99 -9.5h-57.5t-57.5 2q-59 0 -114 -14q-111 0 -191 24.5t-129 98.5q-31 55 -30 127q0 27 6 55q10 10 12 10l274 -6q12 -8 13 -20 q-4 -25 -8 -48q0 -45 26 -79q49 -43 125 -43q12 0 28.5 2t51.5 7t90 53t72 112q0 51 -23 63q-25 23 -60.5 32t-76.5 9q-25 0 -49.5 -1t-46.5 -1q-59 -6 -79 -7t-63 -1q-84 0 -147 23.5t-102 84.5q-31 43 -31 109q0 51 24.5 98t47 67.5t49.5 20.5q27 -4 39 -4q25 0 52 32 t35.5 64.5t8.5 102.5q0 57 -50 80.5t-167 58.5q-74 -8 -98.5 -60.5t-49.5 -121.5q-18 -92 -41.5 -483.5t-23.5 -514.5q-20 -2 -29 -6q-63 -8 -133 -18t-123 -10q-6 0 -9 2t3 57t19.5 179t13.5 208l-10 12q-33 0 -94.5 -4t-88.5 -4z" />
<glyph unicode="&#xe0;" horiz-adv-x="1292" d="M61 391q0 109 45 205q49 125 170 204t263 91q16 -2 30.5 -2h30.5q37 0 115 6t116 6q45 0 86 -6t73 -20.5t69 -14.5q35 0 83 13.5t91 25.5q18 0 18 -8l-4 -21q-43 -145 -64.5 -280t-21.5 -262q0 -139 27 -322q-4 -14 -10 -14l-297 6q-2 2 -10.5 19.5t-20.5 17.5 q-55 -20 -116.5 -25.5t-153.5 -5.5q-78 -20 -150 -20q-90 0 -165 30.5t-119 94t-64.5 135t-20.5 147.5zM371 385q0 -92 47 -158q25 -43 62.5 -69.5t80.5 -26.5q20 0 68.5 16.5t125 89t105.5 139t43.5 107.5t14.5 78q-1 27 -5 39q-10 55 -97 110.5t-169 55.5 q-70 -27 -132 -79t-103 -129t-41 -173zM396 1260q0 23 16 39t51 35.5t92 38.5q127 -70 219.5 -137.5t120.5 -108.5q4 -9 0 -13q-66 -31 -131 -59q-59 45 -155.5 90t-210.5 90q-2 8 -2 25z" />
<glyph unicode="&#xe1;" horiz-adv-x="1292" d="M61 391q0 109 45 205q49 125 170 204t263 91q16 -2 30.5 -2h30.5q37 0 115 6t116 6q45 0 86 -6t73 -20.5t69 -14.5q35 0 83 13.5t91 25.5q18 0 18 -8l-4 -21q-43 -145 -64.5 -280t-21.5 -262q0 -139 27 -322q-4 -14 -10 -14l-297 6q-2 2 -10.5 19.5t-20.5 17.5 q-55 -20 -116.5 -25.5t-153.5 -5.5q-78 -20 -150 -20q-90 0 -165 30.5t-119 94t-64.5 135t-20.5 147.5zM371 385q0 -92 47 -158q25 -43 62.5 -69.5t80.5 -26.5q20 0 68.5 16.5t125 89t105.5 139t43.5 107.5t14.5 78q-1 27 -5 39q-10 55 -97 110.5t-169 55.5 q-70 -27 -132 -79t-103 -129t-41 -173zM413 1114q-4 4 0 13q39 55 142.5 124.5t197.5 121.5q53 -16 91 -38t53.5 -37.5t15.5 -39.5q0 -17 -2 -23q-143 -57 -221 -93t-146 -87q-29 6 -74 30.5t-57 28.5z" />
<glyph unicode="&#xe2;" horiz-adv-x="1292" d="M61 391q0 109 45 205q49 125 170 204t263 91q16 -2 30.5 -2h30.5q37 0 115 6t116 6q45 0 86 -6t73 -20.5t69 -14.5q35 0 83 13.5t91 25.5q18 0 18 -8l-4 -21q-43 -145 -64.5 -280t-21.5 -262q0 -139 27 -322q-4 -14 -10 -14l-297 6q-2 2 -10.5 19.5t-20.5 17.5 q-55 -20 -116.5 -25.5t-153.5 -5.5q-78 -20 -150 -20q-90 0 -165 30.5t-119 94t-64.5 135t-20.5 147.5zM327 1089v23q33 45 176.5 139t171.5 94q29 0 171.5 -92t177.5 -141v-23q-66 -27 -132 -53q-39 29 -96 61.5t-121 59.5q-72 -33 -121 -59.5t-96 -61.5q-31 6 -77 28.5 t-54 24.5zM371 385q0 -92 47 -158q25 -43 62.5 -69.5t80.5 -26.5q20 0 68.5 16.5t125 89t105.5 139t43.5 107.5t14.5 78q-1 27 -5 39q-10 55 -97 110.5t-169 55.5q-70 -27 -132 -79t-103 -129t-41 -173z" />
<glyph unicode="&#xe3;" horiz-adv-x="1292" d="M61 391q0 109 45 205q49 125 170 204t263 91q16 -2 30.5 -2h30.5q37 0 115 6t116 6q45 0 86 -6t73 -20.5t69 -14.5q35 0 83 13.5t91 25.5q18 0 18 -8l-4 -21q-43 -145 -64.5 -280t-21.5 -262q0 -139 27 -322q-4 -14 -10 -14l-297 6q-2 2 -10.5 19.5t-20.5 17.5 q-55 -20 -116.5 -25.5t-153.5 -5.5q-78 -20 -150 -20q-90 0 -165 30.5t-119 94t-64.5 135t-20.5 147.5zM335 1057v22q39 53 114 106.5t124 53.5t130 -26.5t165 -55.5q37 0 70.5 31t48.5 35q8 -2 16 -2q6 -23 28.5 -63t28.5 -56q-49 -39 -96 -68.5t-96 -29.5q-29 0 -140.5 44 t-158.5 44q-29 0 -53.5 -30t-48.5 -58q-35 18 -66 30.5t-66 22.5zM371 385q0 -92 47 -158q25 -43 62.5 -69.5t80.5 -26.5q20 0 68.5 16.5t125 89t105.5 139t43.5 107.5t14.5 78q-1 27 -5 39q-10 55 -97 110.5t-169 55.5q-70 -27 -132 -79t-103 -129t-41 -173z" />
<glyph unicode="&#xe4;" horiz-adv-x="1292" d="M61 391q0 109 45 205q49 125 170 204t263 91q16 -2 30.5 -2h30.5q37 0 115 6t116 6q45 0 86 -6t73 -20.5t69 -14.5q35 0 83 13.5t91 25.5q18 0 18 -8l-4 -21q-43 -145 -64.5 -280t-21.5 -262q0 -139 27 -322q-4 -14 -10 -14l-297 6q-2 2 -10.5 19.5t-20.5 17.5 q-55 -20 -116.5 -25.5t-153.5 -5.5q-78 -20 -150 -20q-90 0 -165 30.5t-119 94t-64.5 135t-20.5 147.5zM254 1174q-6 8 7 19.5t34.5 34t57.5 60t83 82.5q35 -12 80 -35.5t68 -35.5q6 -8 28.5 -16.5t28.5 -24.5q-43 -43 -122 -106.5t-95 -77.5q-41 14 -85 42.5t-85 57.5z M371 385q0 -92 47 -158q25 -43 62.5 -69.5t80.5 -26.5q20 0 68.5 16.5t125 89t105.5 139t43.5 107.5t14.5 78q-1 27 -5 39q-10 55 -97 110.5t-169 55.5q-70 -27 -132 -79t-103 -129t-41 -173zM715 1174q-6 8 7 19.5t34.5 34t57.5 60t83 82.5q35 -12 80 -35.5t67 -35.5 q6 -8 29 -16.5t29 -24.5q-43 -43 -122 -106.5t-95 -77.5q-41 14 -85 42.5t-85 57.5z" />
<glyph unicode="&#xe5;" horiz-adv-x="1292" d="M61 391q0 109 45 205q49 125 170 204t263 91q16 -2 30.5 -2h30.5q37 0 115 6t116 6q45 0 86 -6t73 -20.5t69 -14.5q35 0 83 13.5t91 25.5q18 0 18 -8l-4 -21q-43 -145 -64.5 -280t-21.5 -262q0 -139 27 -322q-4 -14 -10 -14l-297 6q-2 2 -10.5 19.5t-20.5 17.5 q-55 -20 -116.5 -25.5t-153.5 -5.5q-78 -20 -150 -20q-90 0 -165 30.5t-119 94t-64.5 135t-20.5 147.5zM371 385q0 -92 47 -158q25 -43 62.5 -69.5t80.5 -26.5q20 0 68.5 16.5t125 89t105.5 139t43.5 107.5t14.5 78q-1 27 -5 39q-10 55 -97 110.5t-169 55.5 q-70 -27 -132 -79t-103 -129t-41 -173zM426 1270q0 86 61.5 149.5t149.5 63.5q90 0 151.5 -61.5t61.5 -151.5q0 -88 -61.5 -149.5t-151.5 -61.5q-88 0 -149.5 61.5t-61.5 149.5zM526 1270q0 -47 31.5 -79t79.5 -32q47 0 77.5 31t30.5 80q0 47 -30.5 77.5t-77.5 30.5 q-45 0 -78 -30.5t-33 -77.5z" />
<glyph unicode="&#xe6;" horiz-adv-x="1994" d="M61 391q0 109 45 205q49 125 170 204t263 91q16 -2 30.5 -2h30.5q37 0 115 6t116 6q45 0 86 -6t78 -25q41 -14 103 -14q47 0 83 5t66 13q20 0 54 5.5t40 5.5q61 6 129 12t101 6q74 0 127 -11t92 -37t65 -40q27 -23 59 -83t32 -140q0 -92 -41 -164l-19 -8q-76 10 -138 12 t-165 2q-152 0 -242 -2t-167 -4l-9 -100q0 -49 30 -95.5t96.5 -82t164.5 -35.5q70 0 125 26q70 23 146.5 55.5t218.5 112.5v-18l-152 -297l-16 -10q-80 0 -245 9t-192 9q-43 0 -83.5 -2t-79.5 -8l-297 6q-2 2 4 44t-4 42q-113 -41 -176.5 -60.5t-124.5 -19.5 q-78 -20 -150 -20q-90 0 -165 30.5t-119 94t-64.5 135t-20.5 147.5zM371 385q0 -92 47 -158q25 -43 62.5 -69.5t80.5 -26.5q20 0 68.5 16.5t133.5 72.5t122 122q20 127 20 238q0 49 -92 117.5t-166 68.5q-70 -27 -132 -79t-103 -129t-41 -173zM1243 602q0 -8 8 -16 q31 -6 65 -8.5t79 -2.5q63 0 161.5 5.5t110.5 5.5l19 8q6 16 3 32.5t-10.5 34t-57.5 61.5t-88 51t-60 7q-57 0 -105.5 -32.5t-97.5 -90.5q-12 -18 -19.5 -31.5t-7.5 -23.5z" />
<glyph unicode="&#xe7;" horiz-adv-x="1200" d="M61 369q0 119 53.5 213t155.5 180q129 61 320.5 96t544.5 35q6 -8 35.5 1t33.5 9q6 0 4 -7.5t-16 -23.5q-47 -59 -101.5 -114.5t-101.5 -85.5q-6 2 -135 47t-178 45q-45 0 -84 -16q-111 -72 -177.5 -165.5t-66.5 -213.5q12 -78 43 -140.5t92 -91.5q78 -43 168 -43 q111 0 253.5 72t271.5 137l-132 -289q-74 -14 -149.5 -19t-185.5 -5l-4 -6l-29 -60l-6 -35q23 6 35 8.5t28 2.5q78 0 122 -31t44 -86q0 -74 -73.5 -124t-188.5 -50q-111 0 -248 69q10 14 22.5 39t18.5 33q78 -59 178 -59q113 0 113 71q0 29 -15.5 41.5t-58.5 12.5 q-39 0 -66.5 -2t-64.5 -15q18 29 35.5 63t28.5 54l36 74l-133 -4h-45t-47 -2q-33 0 -61.5 4t-48.5 18q-102 51 -161 149.5t-59 213.5z" />
<glyph unicode="&#xe8;" d="M61 367q0 117 51.5 230.5t177.5 197.5t265 84q61 6 129 12t100 6q74 0 127.5 -11.5t92 -37t65.5 -39.5q27 -23 58.5 -83t31.5 -140q0 -92 -41 -164q-14 -4 -18 -8q-76 10 -138.5 12t-164.5 2q-152 0 -242 -2t-168 -4q-12 -12 -12 -41q0 -16 2 -36.5t2 -22.5 q0 -49 29.5 -95.5t96 -82t165.5 -35.5q70 0 125 26q70 23 146.5 55.5t217.5 112.5q2 -4 0 -18l-151 -297q-8 -4 -17 -11q-63 0 -196 10.5t-177 10.5q-25 0 -44 -1t-87 -9q-147 0 -218.5 28.5t-118 82t-68 122t-21.5 146.5zM396 1260q0 23 16 39t51 35.5t92 38.5 q127 -70 219.5 -137.5t120.5 -108.5q4 -9 0 -13q-66 -31 -131 -59q-59 45 -155.5 90t-210.5 90q-2 8 -2 25zM408 596q0 -8 8 -16q31 -6 64.5 -8.5t78.5 -2.5q63 0 161.5 5.5t110.5 5.5q15 4 19 8q6 16 3 32.5t-10 34t-57.5 61.5t-88.5 51t-60 7q-57 0 -105.5 -32.5 t-97.5 -90.5q-12 -18 -19 -31.5t-7 -23.5z" />
<glyph unicode="&#xe9;" d="M61 367q0 117 51.5 230.5t177.5 197.5t265 84q61 6 129 12t100 6q74 0 127.5 -11.5t92 -37t65.5 -39.5q27 -23 58.5 -83t31.5 -140q0 -92 -41 -164q-14 -4 -18 -8q-76 10 -138.5 12t-164.5 2q-152 0 -242 -2t-168 -4q-12 -12 -12 -41q0 -16 2 -36.5t2 -22.5 q0 -49 29.5 -95.5t96 -82t165.5 -35.5q70 0 125 26q70 23 146.5 55.5t217.5 112.5q2 -4 0 -18l-151 -297q-8 -4 -17 -11q-63 0 -196 10.5t-177 10.5q-25 0 -44 -1t-87 -9q-147 0 -218.5 28.5t-118 82t-68 122t-21.5 146.5zM408 596q0 -8 8 -16q31 -6 64.5 -8.5t78.5 -2.5 q63 0 161.5 5.5t110.5 5.5q15 4 19 8q6 16 3 32.5t-10 34t-57.5 61.5t-88.5 51t-60 7q-57 0 -105.5 -32.5t-97.5 -90.5q-12 -18 -19 -31.5t-7 -23.5zM413 1114q-4 4 0 13q39 55 142.5 124.5t197.5 121.5q53 -16 91 -38t53.5 -37.5t15.5 -39.5q0 -17 -2 -23 q-143 -57 -221 -93t-146 -87q-29 6 -74 30.5t-57 28.5z" />
<glyph unicode="&#xea;" d="M61 367q0 117 51.5 230.5t177.5 197.5t265 84q61 6 129 12t100 6q74 0 127.5 -11.5t92 -37t65.5 -39.5q27 -23 58.5 -83t31.5 -140q0 -92 -41 -164q-14 -4 -18 -8q-76 10 -138.5 12t-164.5 2q-152 0 -242 -2t-168 -4q-12 -12 -12 -41q0 -16 2 -36.5t2 -22.5 q0 -49 29.5 -95.5t96 -82t165.5 -35.5q70 0 125 26q70 23 146.5 55.5t217.5 112.5q2 -4 0 -18l-151 -297q-8 -4 -17 -11q-63 0 -196 10.5t-177 10.5q-25 0 -44 -1t-87 -9q-147 0 -218.5 28.5t-118 82t-68 122t-21.5 146.5zM254 1089v23q33 45 176.5 139t171.5 94 q29 0 171.5 -92t177.5 -141v-23q-66 -27 -132 -53q-39 29 -96 61.5t-121 59.5q-72 -33 -121 -59.5t-96 -61.5q-31 6 -77 28.5t-54 24.5zM408 596q0 -8 8 -16q31 -6 64.5 -8.5t78.5 -2.5q63 0 161.5 5.5t110.5 5.5q15 4 19 8q6 16 3 32.5t-10 34t-57.5 61.5t-88.5 51t-60 7 q-57 0 -105.5 -32.5t-97.5 -90.5q-12 -18 -19 -31.5t-7 -23.5z" />
<glyph unicode="&#xeb;" d="M61 367q0 117 51.5 230.5t177.5 197.5t265 84q61 6 129 12t100 6q74 0 127.5 -11.5t92 -37t65.5 -39.5q27 -23 58.5 -83t31.5 -140q0 -92 -41 -164q-14 -4 -18 -8q-76 10 -138.5 12t-164.5 2q-152 0 -242 -2t-168 -4q-12 -12 -12 -41q0 -16 2 -36.5t2 -22.5 q0 -49 29.5 -95.5t96 -82t165.5 -35.5q70 0 125 26q70 23 146.5 55.5t217.5 112.5q2 -4 0 -18l-151 -297q-8 -4 -17 -11q-63 0 -196 10.5t-177 10.5q-25 0 -44 -1t-87 -9q-147 0 -218.5 28.5t-118 82t-68 122t-21.5 146.5zM205 1174q-6 8 7 19.5t34.5 34t57.5 60t83 82.5 q35 -12 80 -35.5t68 -35.5q6 -8 28.5 -16.5t28.5 -24.5q-43 -43 -122 -106.5t-95 -77.5q-41 14 -85 42.5t-85 57.5zM408 596q0 -8 8 -16q31 -6 64.5 -8.5t78.5 -2.5q63 0 161.5 5.5t110.5 5.5q15 4 19 8q6 16 3 32.5t-10 34t-57.5 61.5t-88.5 51t-60 7q-57 0 -105.5 -32.5 t-97.5 -90.5q-12 -18 -19 -31.5t-7 -23.5zM666 1174q-6 8 7 19.5t34.5 34t57.5 60t83 82.5q35 -12 80 -35.5t67 -35.5q6 -8 29 -16.5t29 -24.5q-43 -43 -122 -106.5t-95 -77.5q-41 14 -85 42.5t-85 57.5z" />
<glyph unicode="&#xec;" horiz-adv-x="563" d="M14 866q4 6 14.5 6t12.5 2q55 0 201.5 28t167.5 28q45 0 45 -23q0 -43 -9.5 -121.5t-9.5 -91.5q0 -121 4 -398.5t4 -287.5l2 -10l-329 4q0 45 10 96.5t20 102.5q4 43 6.5 134t2.5 140v166q-10 66 -59.5 125t-82.5 100zM39 1260q0 23 16 39t51 35.5t92 38.5 q127 -70 219.5 -137.5t120.5 -108.5q4 -9 0 -13q-66 -31 -131 -59q-59 45 -155.5 90t-210.5 90q-2 8 -2 25z" />
<glyph unicode="&#xed;" horiz-adv-x="563" d="M14 866q4 6 14.5 6t12.5 2q55 0 201.5 28t167.5 28q45 0 45 -23q0 -43 -9.5 -121.5t-9.5 -91.5q0 -121 4 -398.5t4 -287.5l2 -10l-329 4q0 45 10 96.5t20 102.5q4 43 6.5 134t2.5 140v166q-10 66 -59.5 125t-82.5 100zM45 1114q-4 4 0 13q39 55 142.5 124.5t197.5 121.5 q53 -16 91 -38t53.5 -37.5t15.5 -39.5q0 -17 -2 -23q-143 -57 -221 -93t-146 -87q-29 6 -74 30.5t-57 28.5z" />
<glyph unicode="&#xee;" horiz-adv-x="563" d="M-78 1089v23q33 45 176.5 139t171.5 94q29 0 171.5 -92t177.5 -141v-23q-66 -27 -132 -53q-39 29 -96 61.5t-121 59.5q-72 -33 -121 -59.5t-96 -61.5q-31 6 -77 28.5t-54 24.5zM14 866q4 6 14.5 6t12.5 2q55 0 201.5 28t167.5 28q45 0 45 -23q0 -43 -9.5 -121.5 t-9.5 -91.5q0 -121 4 -398.5t4 -287.5l2 -10l-329 4q0 45 10 96.5t20 102.5q4 43 6.5 134t2.5 140v166q-10 66 -59.5 125t-82.5 100z" />
<glyph unicode="&#xef;" horiz-adv-x="563" d="M-127 1174q-6 8 7 19.5t34.5 34t57.5 60t83 82.5q35 -12 80 -35.5t68 -35.5q6 -8 28.5 -16.5t28.5 -24.5q-43 -43 -122 -106.5t-95 -77.5q-41 14 -85 42.5t-85 57.5zM14 866q4 6 14.5 6t12.5 2q55 0 201.5 28t167.5 28q45 0 45 -23q0 -43 -9.5 -121.5t-9.5 -91.5 q0 -121 4 -398.5t4 -287.5l2 -10l-329 4q0 45 10 96.5t20 102.5q4 43 6.5 134t2.5 140v166q-10 66 -59.5 125t-82.5 100zM334 1174q-6 8 7 19.5t34.5 34t57.5 60t83 82.5q35 -12 80 -35.5t67 -35.5q6 -8 29 -16.5t29 -24.5q-43 -43 -122 -106.5t-95 -77.5q-41 14 -85 42.5 t-85 57.5z" />
<glyph unicode="&#xf0;" horiz-adv-x="1183" d="M4 420q0 113 42 207t125 158.5t181 72.5q45 14 101 14q39 0 80.5 -6t64.5 -8q16 10 0 35q-98 86 -262 197.5t-250 171.5v8q152 0 262.5 -1t229.5 -5l57 -47q55 -57 110 -115q164 -152 276.5 -279.5t143.5 -242.5q16 -66 17 -121q0 -94 -37 -181.5t-115 -162t-189.5 -103 t-279.5 -28.5h-59q-135 0 -221 18t-149.5 84t-95.5 152t-32 182zM29 954q113 49 253 98.5t363 122t229 76.5q8 2 123 -43t138 -55q4 -2 10 -6t4 -4q-242 -59 -473.5 -128t-341 -108t-183 -7t-122.5 54zM317 444q0 -61 18.5 -117.5t55.5 -96.5t75 -56t122 -43 q82 0 142.5 55.5t109.5 145.5q31 66 30 145q0 49 -11 88t-45 74t-98.5 59.5t-129.5 24.5q-53 0 -101.5 -15.5t-90.5 -57.5t-59.5 -95t-17.5 -111z" />
<glyph unicode="&#xf1;" horiz-adv-x="1359" d="M43 840v12q90 0 175 8t161 29q25 8 31 -10q4 -29 6 -39.5t5 -19.5t17 -15q88 27 162 40t162 13q45 10 99 18.5t102 8.5q55 0 98 -10.5t94 -48.5t79 -106.5t28 -154.5v-33q-4 -25 -10.5 -73.5t-48.5 -132.5t-107 -160q0 -25 12 -25q68 16 109 26t92 26q-18 -39 -48 -91.5 t-57 -99.5l-12 -12q-72 6 -167 9t-210 3h-225q90 82 156.5 144.5t113.5 129.5q37 63 62.5 131t25.5 130q0 37 -11 71.5t-35.5 65.5t-62.5 48t-89 23q-115 -18 -206 -114t-118 -174t-33 -126t-6 -89q0 -51 5 -136.5t5 -97.5l-2 -6h-319l-6 4q33 145 54 260t21 219 q0 111 -22.5 195t-79.5 160zM290 1135v22q39 53 114 106.5t124 53.5t130 -26.5t165 -55.5q37 0 70.5 31t48.5 35q8 -2 16 -2q6 -23 28.5 -63t28.5 -56q-49 -39 -96 -68.5t-96 -29.5q-29 0 -140.5 44t-158.5 44q-29 0 -53.5 -30t-48.5 -58q-35 18 -66 30.5t-66 22.5z" />
<glyph unicode="&#xf2;" horiz-adv-x="1269" d="M70 381q0 137 71.5 242.5t185 156.5t269.5 76q109 41 223 41q68 0 123 -15.5t102 -52.5q27 -12 39.5 -17t63.5 -101q53 -96 53 -226q0 -147 -78 -254.5t-186.5 -147.5t-252.5 -73t-160.5 -35t-51.5 -2q-104 0 -190 41t-140 127q-72 102 -71 240zM350 418q0 -74 34 -141.5 t104.5 -113.5t154.5 -46q49 -6 82 16.5t94 79.5q94 100 94 248q1 74 -26 129q-37 84 -107.5 122t-158.5 38q-70 -20 -121 -50t-100.5 -99t-49.5 -183zM359 1260q0 23 16 39t51 35.5t92 38.5q127 -70 219.5 -137.5t120.5 -108.5q4 -9 0 -13q-66 -31 -131 -59 q-59 45 -155.5 90t-210.5 90q-2 8 -2 25z" />
<glyph unicode="&#xf3;" horiz-adv-x="1269" d="M70 381q0 137 71.5 242.5t185 156.5t269.5 76q109 41 223 41q68 0 123 -15.5t102 -52.5q27 -12 39.5 -17t63.5 -101q53 -96 53 -226q0 -147 -78 -254.5t-186.5 -147.5t-252.5 -73t-160.5 -35t-51.5 -2q-104 0 -190 41t-140 127q-72 102 -71 240zM350 418q0 -74 34 -141.5 t104.5 -113.5t154.5 -46q49 -6 82 16.5t94 79.5q94 100 94 248q1 74 -26 129q-37 84 -107.5 122t-158.5 38q-70 -20 -121 -50t-100.5 -99t-49.5 -183zM377 1114q-4 4 0 13q39 55 142.5 124.5t197.5 121.5q53 -16 91 -38t53.5 -37.5t15.5 -39.5q0 -17 -2 -23 q-143 -57 -221 -93t-146 -87q-29 6 -74 30.5t-57 28.5z" />
<glyph unicode="&#xf4;" horiz-adv-x="1269" d="M70 381q0 137 71.5 242.5t185 156.5t269.5 76q109 41 223 41q68 0 123 -15.5t102 -52.5q27 -12 39.5 -17t63.5 -101q53 -96 53 -226q0 -147 -78 -254.5t-186.5 -147.5t-252.5 -73t-160.5 -35t-51.5 -2q-104 0 -190 41t-140 127q-72 102 -71 240zM278 1089v23 q33 45 176.5 139t171.5 94q29 0 171.5 -92t177.5 -141v-23q-66 -27 -132 -53q-39 29 -96 61.5t-121 59.5q-72 -33 -121 -59.5t-96 -61.5q-31 6 -77 28.5t-54 24.5zM350 418q0 -74 34 -141.5t104.5 -113.5t154.5 -46q49 -6 82 16.5t94 79.5q94 100 94 248q1 74 -26 129 q-37 84 -107.5 122t-158.5 38q-70 -20 -121 -50t-100.5 -99t-49.5 -183z" />
<glyph unicode="&#xf5;" horiz-adv-x="1269" d="M70 381q0 137 71.5 242.5t185 156.5t269.5 76q109 41 223 41q68 0 123 -15.5t102 -52.5q27 -12 39.5 -17t63.5 -101q53 -96 53 -226q0 -147 -78 -254.5t-186.5 -147.5t-252.5 -73t-160.5 -35t-51.5 -2q-104 0 -190 41t-140 127q-72 102 -71 240zM301 1063v22 q39 53 114 106.5t124 53.5t130 -26.5t165 -55.5q37 0 70.5 31t48.5 35q8 -2 16 -2q6 -23 28.5 -63t28.5 -56q-49 -39 -96 -68.5t-96 -29.5q-29 0 -140.5 44t-158.5 44q-29 0 -53.5 -30t-48.5 -58q-35 18 -66 30.5t-66 22.5zM350 418q0 -74 34 -141.5t104.5 -113.5t154.5 -46 q49 -6 82 16.5t94 79.5q94 100 94 248q1 74 -26 129q-37 84 -107.5 122t-158.5 38q-70 -20 -121 -50t-100.5 -99t-49.5 -183z" />
<glyph unicode="&#xf6;" horiz-adv-x="1269" d="M70 381q0 137 71.5 242.5t185 156.5t269.5 76q109 41 223 41q68 0 123 -15.5t102 -52.5q27 -12 39.5 -17t63.5 -101q53 -96 53 -226q0 -147 -78 -254.5t-186.5 -147.5t-252.5 -73t-160.5 -35t-51.5 -2q-104 0 -190 41t-140 127q-72 102 -71 240zM217 1174q-6 8 7 19.5 t34.5 34t57.5 60t83 82.5q35 -12 80 -35.5t68 -35.5q6 -8 28.5 -16.5t28.5 -24.5q-43 -43 -122 -106.5t-95 -77.5q-41 14 -85 42.5t-85 57.5zM350 418q0 -74 34 -141.5t104.5 -113.5t154.5 -46q49 -6 82 16.5t94 79.5q94 100 94 248q1 74 -26 129q-37 84 -107.5 122 t-158.5 38q-70 -20 -121 -50t-100.5 -99t-49.5 -183zM678 1174q-6 8 7 19.5t34.5 34t57.5 60t83 82.5q35 -12 80 -35.5t67 -35.5q6 -8 29 -16.5t29 -24.5q-43 -43 -122 -106.5t-95 -77.5q-41 14 -85 42.5t-85 57.5z" />
<glyph unicode="&#xf7;" horiz-adv-x="0" d="M18 625q-4 2 0 14q68 104 136 211q68 -10 163 -14.5t199 -4.5q139 0 284.5 5.5t227.5 9.5v-19l-121 -202q-10 0 -18 -9q-92 10 -169 12.5t-202 2.5q-123 0 -310.5 -3t-189.5 -3zM237 426q0 16 19.5 31.5t23.5 27.5q53 63 113 119q37 -18 139 -72.5t110.5 -57.5t21.5 -8.5 t11 -17.5q-39 -53 -68.5 -90t-60.5 -61q-147 55 -309 129zM333 985q4 10 5 18q35 27 99 89.5t85 78.5q78 -33 148 -67.5t136 -69.5q2 -2 -2 -14q-78 -72 -155 -142q-4 -2 -25 0q-47 23 -145 55.5t-146 51.5z" />
<glyph unicode="&#xf8;" horiz-adv-x="1269" d="M-16 -127q96 90 202 209q-10 10 -21 25.5t-53 76t-42 197.5t71.5 242.5t185 156.5t269.5 76q109 41 219 41h31q20 -4 31 -4l90 113q2 2 85 8t154 6h51q3 -4 7 -6q-104 -86 -209 -191q16 -8 35 -16q12 -12 61 -102.5t49 -219.5q0 -147 -78 -254.5t-186.5 -147.5t-263 -75 t-203.5 -35q-72 0 -131 21l-115 -135q-59 2 -119.5 4t-119.5 10zM348 416q0 -70 27 -125q68 78 185 218t185 222q-25 10 -55.5 14.5t-68.5 4.5q-70 -20 -121 -50t-101.5 -102t-50.5 -182zM483 168q74 -51 160 -51q49 -6 82 16.5t94 79.5q94 100 94 248q1 74 -26 129 q0 6 -9.5 19.5t-9.5 15.5q-96 -109 -209.5 -245t-175.5 -212z" />
<glyph unicode="&#xf9;" horiz-adv-x="1261" d="M55 350v31q4 23 10.5 65.5t38 109.5t84.5 134q2 6 -3 11.5t-13 9.5q-16 2 -42 0t-48 -2q-18 0 -27 2q8 39 17.5 67.5t33.5 79.5h48h41h36h31h29h24h75t77 2h20q45 0 115 3t72 3q51 0 100 -6l-262 -192q-145 -131 -145 -275q0 -23 7 -65.5t41 -97t72.5 -73t60 -20.5 t23.5 -2q53 0 103.5 31t105.5 84q72 78 96.5 184.5t24.5 251.5v23q0 35 -1 69.5t-1 71.5v20l10 4h314l10 -4q-2 -29 -40 -293t-38 -352q0 -80 9.5 -135t15.5 -82h-312q-4 6 -6 27.5t-10 30.5q-45 -10 -157.5 -22.5t-149.5 -20.5q-82 -31 -170 -31q-55 0 -97 11t-132.5 83 t-90.5 264zM396 1260q0 23 16 39t51 35.5t92 38.5q127 -70 219.5 -137.5t120.5 -108.5q4 -9 0 -13q-66 -31 -131 -59q-59 45 -155.5 90t-210.5 90q-2 8 -2 25z" />
<glyph unicode="&#xfa;" horiz-adv-x="1261" d="M55 350v31q4 23 10.5 65.5t38 109.5t84.5 134q2 6 -3 11.5t-13 9.5q-16 2 -42 0t-48 -2q-18 0 -27 2q8 39 17.5 67.5t33.5 79.5h48h41h36h31h29h24h75t77 2h20q45 0 115 3t72 3q51 0 100 -6l-262 -192q-145 -131 -145 -275q0 -23 7 -65.5t41 -97t72.5 -73t60 -20.5 t23.5 -2q53 0 103.5 31t105.5 84q72 78 96.5 184.5t24.5 251.5v23q0 35 -1 69.5t-1 71.5v20l10 4h314l10 -4q-2 -29 -40 -293t-38 -352q0 -80 9.5 -135t15.5 -82h-312q-4 6 -6 27.5t-10 30.5q-45 -10 -157.5 -22.5t-149.5 -20.5q-82 -31 -170 -31q-55 0 -97 11t-132.5 83 t-90.5 264zM413 1114q-4 4 0 13q39 55 142.5 124.5t197.5 121.5q53 -16 91 -38t53.5 -37.5t15.5 -39.5q0 -17 -2 -23q-143 -57 -221 -93t-146 -87q-29 6 -74 30.5t-57 28.5z" />
<glyph unicode="&#xfb;" horiz-adv-x="1261" d="M55 350v31q4 23 10.5 65.5t38 109.5t84.5 134q2 6 -3 11.5t-13 9.5q-16 2 -42 0t-48 -2q-18 0 -27 2q8 39 17.5 67.5t33.5 79.5h48h41h36h31h29h24h75t77 2h20q45 0 115 3t72 3q51 0 100 -6l-262 -192q-145 -131 -145 -275q0 -23 7 -65.5t41 -97t72.5 -73t60 -20.5 t23.5 -2q53 0 103.5 31t105.5 84q72 78 96.5 184.5t24.5 251.5v23q0 35 -1 69.5t-1 71.5v20l10 4h314l10 -4q-2 -29 -40 -293t-38 -352q0 -80 9.5 -135t15.5 -82h-312q-4 6 -6 27.5t-10 30.5q-45 -10 -157.5 -22.5t-149.5 -20.5q-82 -31 -170 -31q-55 0 -97 11t-132.5 83 t-90.5 264zM303 1089v23q33 45 176.5 139t171.5 94q29 0 171.5 -92t177.5 -141v-23q-66 -27 -132 -53q-39 29 -96 61.5t-121 59.5q-72 -33 -121 -59.5t-96 -61.5q-31 6 -77 28.5t-54 24.5z" />
<glyph unicode="&#xfc;" horiz-adv-x="1261" d="M55 350v31q4 23 10.5 65.5t38 109.5t84.5 134q2 6 -3 11.5t-13 9.5q-16 2 -42 0t-48 -2q-18 0 -27 2q8 39 17.5 67.5t33.5 79.5h48h41h36h31h29h24h75t77 2h20q45 0 115 3t72 3q51 0 100 -6l-262 -192q-145 -131 -145 -275q0 -23 7 -65.5t41 -97t72.5 -73t60 -20.5 t23.5 -2q53 0 103.5 31t105.5 84q72 78 96.5 184.5t24.5 251.5v23q0 35 -1 69.5t-1 71.5v20l10 4h314l10 -4q-2 -29 -40 -293t-38 -352q0 -80 9.5 -135t15.5 -82h-312q-4 6 -6 27.5t-10 30.5q-45 -10 -157.5 -22.5t-149.5 -20.5q-82 -31 -170 -31q-55 0 -97 11t-132.5 83 t-90.5 264zM254 1092q-6 8 7 19.5t34.5 34t57.5 60t83 82.5q35 -12 80 -35.5t68 -35.5q6 -8 28.5 -16.5t28.5 -24.5q-43 -43 -122 -106.5t-95 -77.5q-41 14 -85 42.5t-85 57.5zM715 1092q-6 8 7 19.5t34.5 34t57.5 60t83 82.5q35 -12 80 -35.5t67 -35.5q6 -8 29 -16.5 t29 -24.5q-43 -43 -122 -106.5t-95 -77.5q-41 14 -85 42.5t-85 57.5z" />
<glyph unicode="&#xfd;" horiz-adv-x="1294" d="M-43 -197q0 63 19.5 133t47 119t50 83t51.5 63q106 10 215 22q-8 -25 -45 -69.5t-54.5 -79.5t-31.5 -87.5t-14 -105.5q0 -80 38 -137q43 -55 103 -55q10 0 35 4q90 27 143 106.5t86 190.5q6 12 -12 22q-37 0 -105.5 -9t-76.5 -9q0 100 2 160.5t4 113.5q0 123 -14.5 209 t-59.5 168q-16 12 -47 12q-43 -2 -84 -4q-27 0 -80 -6t-80 -6q29 45 94.5 121t77.5 90q51 0 155.5 2t155.5 2l19 -4q82 -115 115.5 -261.5t33.5 -320.5q8 -12 16.5 -4t45.5 84t110.5 227.5t147.5 264.5q6 18 51 26h201q4 0 10 -8q-88 -168 -182 -351t-164 -344t-121 -339 q-45 -117 -154.5 -167t-261.5 -67q-51 -12 -103 -21t-99 -9q-53 0 -99.5 13t-81.5 44q-29 35 -43 85t-14 99zM610 1187q-4 4 0 13q39 55 142.5 124.5t197.5 121.5q53 -16 91 -38t53.5 -37.5t15.5 -39.5q0 -17 -2 -23q-143 -57 -221 -93t-146 -87q-29 6 -74 30.5t-57 28.5z " />
<glyph unicode="&#xfe;" horiz-adv-x="1280" d="M104 1419q0 10 5.5 12.5t5.5 6.5h323l11 -8q-18 -137 -27 -201q-6 -97 -8 -199q98 2 157 6q117 6 256 25q145 0 210 -39t106 -113q45 -86 45 -190q0 -147 -86 -252t-208 -153t-261 -48q-43 0 -93.5 6.5t-95.5 16.5q-27 0 -26 -19q0 -92 5 -128t32 -257l-11 -4 q-78 0 -200.5 -3t-126.5 -3q-6 8 -4 10q18 109 25 179.5t-1 560t-18 624.5q-14 94 -15 170zM420 647q8 -129 20 -258q16 -2 27 -2h25q166 0 274 108.5t108 237.5q0 66 -30 127q-27 51 -66 74.5t-84 23.5q-27 0 -50 -5t-93 -36.5t-102 -130.5q-20 -59 -29 -139z" />
<glyph unicode="&#xff;" horiz-adv-x="1294" d="M-43 -197q0 63 19.5 133t47 119t50 83t51.5 63q106 10 215 22q-8 -25 -45 -69.5t-54.5 -79.5t-31.5 -87.5t-14 -105.5q0 -80 38 -137q43 -55 103 -55q10 0 35 4q90 27 143 106.5t86 190.5q6 12 -12 22q-37 0 -105.5 -9t-76.5 -9q0 100 2 160.5t4 113.5q0 123 -14.5 209 t-59.5 168q-16 12 -47 12q-43 -2 -84 -4q-27 0 -80 -6t-80 -6q29 45 94.5 121t77.5 90q51 0 155.5 2t155.5 2l19 -4q82 -115 115.5 -261.5t33.5 -320.5q8 -12 16.5 -4t45.5 84t110.5 227.5t147.5 264.5q6 18 51 26h201q4 0 10 -8q-88 -168 -182 -351t-164 -344t-121 -339 q-45 -117 -154.5 -167t-261.5 -67q-51 -12 -103 -21t-99 -9q-53 0 -99.5 13t-81.5 44q-29 35 -43 85t-14 99zM254 1174q-6 8 7 19.5t34.5 34t57.5 60t83 82.5q35 -12 80 -35.5t68 -35.5q6 -8 28.5 -16.5t28.5 -24.5q-43 -43 -122 -106.5t-95 -77.5q-41 14 -85 42.5t-85 57.5 zM715 1174q-6 8 7 19.5t34.5 34t57.5 60t83 82.5q35 -12 80 -35.5t67 -35.5q6 -8 29 -16.5t29 -24.5q-43 -43 -122 -106.5t-95 -77.5q-41 14 -85 42.5t-85 57.5z" />
<glyph unicode="&#x100;" d="M10 12q133 293 240.5 564.5t210.5 572.5q6 35 -20.5 78t-32.5 59q0 4 5 5t5 5q102 0 204.5 -4t174.5 -6q12 0 14 -2t52 -195.5t166 -502.5t286 -594l-8 -6q-98 0 -190.5 2t-184.5 4q-16 33 -32.5 115.5t-31.5 117.5q-31 109 -37 125.5t-32 42.5q-39 6 -104.5 8t-73.5 2 q-51 0 -102.5 -1t-100.5 -1q-20 0 -31.5 -18t-37 -108.5t-75.5 -262.5q0 -6 -8 -10h-248q-4 6 -4 8t-4 2zM305 1461q-2 2 0 14q47 104 94 211q47 -10 112.5 -14.5t139.5 -4.5q96 0 196.5 5.5t157.5 9.5v-19l-84 -202q-8 0 -12 -9q-66 10 -118 12.5t-140 2.5q-84 0 -214 -3 t-132 -3zM471 588q0 -27 8 -27q72 -14 148 -14q49 0 102 6q12 6 17 17.5t-1 17.5q-14 55 -26 91t-52 143.5t-44 109.5q-2 -6 -11 -6q-29 -51 -50 -101.5t-91 -236.5z" />
<glyph unicode="&#x101;" horiz-adv-x="1300" d="M61 391q0 109 45 205q49 125 170 204t263 91q16 -2 30.5 -2h30.5q37 0 115 6t116 6q45 0 86 -6t73 -20.5t69 -14.5q35 0 83 13.5t91 25.5q18 0 18 -8l-4 -21q-43 -145 -64.5 -280t-21.5 -262q0 -139 27 -322q-4 -14 -10 -14l-297 6q-2 2 -10.5 19.5t-20.5 17.5 q-55 -20 -116.5 -25.5t-153.5 -5.5q-78 -20 -150 -20q-90 0 -165 30.5t-119 94t-64.5 135t-20.5 147.5zM367 1020q-2 2 0 14q47 104 94 211q47 -10 112.5 -14.5t139.5 -4.5q96 0 196.5 5.5t157.5 9.5v-19l-84 -202q-8 0 -12 -9q-66 10 -118 12.5t-140 2.5q-84 0 -214 -3 t-132 -3zM371 385q0 -92 47 -158q25 -43 62.5 -69.5t80.5 -26.5q20 0 68.5 16.5t125 89t105.5 139t43.5 107.5t14.5 78q-1 27 -5 39q-10 55 -97 110.5t-169 55.5q-70 -27 -132 -79t-103 -129t-41 -173z" />
<glyph unicode="&#x102;" d="M10 12q133 293 240.5 564.5t210.5 572.5q6 35 -20.5 78t-32.5 59q0 4 5 5t5 5q102 0 204.5 -4t174.5 -6q12 0 14 -2t52 -195.5t166 -502.5t286 -594l-8 -6q-98 0 -190.5 2t-184.5 4q-16 33 -32.5 115.5t-31.5 117.5q-31 109 -37 125.5t-32 42.5q-39 6 -104.5 8t-73.5 2 q-51 0 -102.5 -1t-100.5 -1q-20 0 -31.5 -18t-37 -108.5t-75.5 -262.5q0 -6 -8 -10h-248q-4 6 -4 8t-4 2zM307 1655v23q66 27 131 53q47 -39 102.5 -90t114.5 -72q72 20 127.5 75.5t89.5 86.5q31 -6 77 -28.5t55 -24.5v-23q-57 -80 -150.5 -156.5t-198.5 -76.5 q-82 0 -173 59.5t-175 173.5zM471 588q0 -27 8 -27q72 -14 148 -14q49 0 102 6q12 6 17 17.5t-1 17.5q-14 55 -26 91t-52 143.5t-44 109.5q-2 -6 -11 -6q-29 -51 -50 -101.5t-91 -236.5z" />
<glyph unicode="&#x103;" horiz-adv-x="1300" d="M61 391q0 109 45 205q49 125 170 204t263 91q16 -2 30.5 -2h30.5q37 0 115 6t116 6q45 0 86 -6t73 -20.5t69 -14.5q35 0 83 13.5t91 25.5q18 0 18 -8l-4 -21q-43 -145 -64.5 -280t-21.5 -262q0 -139 27 -322q-4 -14 -10 -14l-297 6q-2 2 -10.5 19.5t-20.5 17.5 q-55 -20 -116.5 -25.5t-153.5 -5.5q-78 -20 -150 -20q-90 0 -165 30.5t-119 94t-64.5 135t-20.5 147.5zM332 1204v23q66 27 131 53q47 -39 102.5 -90t114.5 -72q72 20 127.5 75.5t89.5 86.5q31 -6 77 -28.5t55 -24.5v-23q-57 -80 -150.5 -156.5t-198.5 -76.5 q-82 0 -173 59.5t-175 173.5zM371 385q0 -92 47 -158q25 -43 62.5 -69.5t80.5 -26.5q20 0 68.5 16.5t125 89t105.5 139t43.5 107.5t14.5 78q-1 27 -5 39q-10 55 -97 110.5t-169 55.5q-70 -27 -132 -79t-103 -129t-41 -173z" />
<glyph unicode="&#x104;" d="M10 12q133 293 240.5 564.5t210.5 572.5q6 35 -20.5 78t-32.5 59q0 4 5 5t5 5q102 0 204.5 -4t174.5 -6q12 0 14 -2t52 -195.5t166 -502.5t286 -594l-8 -6q-98 0 -190.5 2t-184.5 4q-16 33 -32.5 115.5t-31.5 117.5q-31 109 -37 125.5t-32 42.5q-39 6 -104.5 8t-73.5 2 q-51 0 -102.5 -1t-100.5 -1q-20 0 -31.5 -18t-37 -108.5t-75.5 -262.5q0 -6 -8 -10h-248q-4 6 -4 8t-4 2zM471 588q0 -27 8 -27q72 -14 148 -14q49 0 102 6q12 6 17 17.5t-1 17.5q-14 55 -26 91t-52 143.5t-44 109.5q-2 -6 -11 -6q-29 -51 -50 -101.5t-91 -236.5zM913 -266 q0 68 46 141.5t132 132.5h115q-74 -76 -93.5 -99.5t-19.5 -72.5q0 -39 24.5 -63.5t61.5 -24.5q23 0 57.5 14.5t63.5 34.5q6 -12 8 -45t6 -45q-78 -59 -133 -83.5t-104 -24.5q-66 0 -115 37.5t-49 97.5z" />
<glyph unicode="&#x105;" horiz-adv-x="1300" d="M61 391q0 109 45 205q49 125 170 204t263 91q16 -2 30.5 -2h30.5q37 0 115 6t116 6q45 0 86 -6t73 -20.5t69 -14.5q35 0 83 13.5t91 25.5q18 0 18 -8l-4 -21q-43 -145 -64.5 -280t-21.5 -262q0 -139 27 -322q-4 -14 -10 -14l-297 6q-2 2 -10.5 19.5t-20.5 17.5 q-55 -20 -116.5 -25.5t-153.5 -5.5q-78 -20 -150 -20q-90 0 -165 30.5t-119 94t-64.5 135t-20.5 147.5zM371 385q0 -92 47 -158q25 -43 62.5 -69.5t80.5 -26.5q20 0 68.5 16.5t125 89t105.5 139t43.5 107.5t14.5 78q-1 27 -5 39q-10 55 -97 110.5t-169 55.5 q-70 -27 -132 -79t-103 -129t-41 -173zM850 -266q0 68 46 141.5t132 132.5h115q-74 -76 -93.5 -99.5t-19.5 -72.5q0 -39 24.5 -63.5t61.5 -24.5q23 0 57.5 14.5t63.5 34.5q6 -12 8 -45t6 -45q-78 -59 -133 -83.5t-104 -24.5q-66 0 -115 37.5t-49 97.5z" />
<glyph unicode="&#x106;" horiz-adv-x="1585" d="M80 598q0 115 32.5 225.5t94.5 196.5q227 279 600 278q92 12 158.5 19.5t119.5 7.5q41 0 112 -9t221.5 -93.5t150.5 -102.5t-25 -24q-125 -53 -250 -105h-24q-86 94 -194.5 146.5t-231.5 52.5q-141 -23 -256 -121t-157 -218t-42 -228q0 -115 40 -217.5t120 -178.5 q66 -57 142.5 -91t158.5 -34q47 0 218 43t431 197q-25 -119 -49 -205q-27 -82 -39 -123q-14 -4 -14 -8q-88 -12 -180.5 -16t-198.5 -4h-29h-24q-39 0 -78 1t-76 1h-23q-27 -4 -56.5 -4h-45.5q-168 0 -297 57t-219 201.5t-90 355.5zM710 1507q-4 4 0 13q39 55 142.5 124.5 t197.5 121.5q53 -16 91 -38t53.5 -37.5t15.5 -39.5q0 -17 -2 -23q-143 -57 -221 -93t-146 -87q-29 6 -74 30.5t-57 28.5z" />
<glyph unicode="&#x107;" horiz-adv-x="1200" d="M61 369q0 119 53.5 213t155.5 180q129 61 320.5 96t544.5 35q6 -8 35.5 1t33.5 9q6 0 4 -7.5t-16 -23.5q-47 -59 -101.5 -114.5t-101.5 -85.5q-6 2 -135 47t-178 45q-45 0 -84 -16q-111 -72 -177.5 -165.5t-66.5 -213.5q12 -78 43 -140.5t92 -91.5q78 -43 168 -43 q111 0 253.5 72t271.5 137l-132 -289q-66 -12 -161 -20t-265 -8h-135h-45t-47 -2q-33 0 -61.5 4t-48.5 18q-102 51 -161 149.5t-59 213.5zM461 1015q-4 4 0 13q39 55 142.5 124.5t197.5 121.5q53 -16 91 -38t53.5 -37.5t15.5 -39.5q0 -17 -2 -23q-143 -57 -221 -93t-146 -87 q-29 6 -74 30.5t-57 28.5z" />
<glyph unicode="&#x108;" horiz-adv-x="1585" d="M80 598q0 115 32.5 225.5t94.5 196.5q227 279 600 278q92 12 158.5 19.5t119.5 7.5q41 0 112 -9t221.5 -93.5t150.5 -102.5t-25 -24q-125 -53 -250 -105h-24q-86 94 -194.5 146.5t-231.5 52.5q-141 -23 -256 -121t-157 -218t-42 -228q0 -115 40 -217.5t120 -178.5 q66 -57 142.5 -91t158.5 -34q47 0 218 43t431 197q-25 -119 -49 -205q-27 -82 -39 -123q-14 -4 -14 -8q-88 -12 -180.5 -16t-198.5 -4h-29h-24q-39 0 -78 1t-76 1h-23q-27 -4 -56.5 -4h-45.5q-168 0 -297 57t-219 201.5t-90 355.5zM547 1531v23q33 45 176.5 139t171.5 94 q29 0 171.5 -92t177.5 -141v-23q-66 -27 -132 -53q-39 29 -96 61.5t-121 59.5q-72 -33 -121 -59.5t-96 -61.5q-31 6 -77 28.5t-54 24.5z" />
<glyph unicode="&#x109;" horiz-adv-x="1200" d="M61 369q0 119 53.5 213t155.5 180q129 61 320.5 96t544.5 35q6 -8 35.5 1t33.5 9q6 0 4 -7.5t-16 -23.5q-47 -59 -101.5 -114.5t-101.5 -85.5q-6 2 -135 47t-178 45q-45 0 -84 -16q-111 -72 -177.5 -165.5t-66.5 -213.5q12 -78 43 -140.5t92 -91.5q78 -43 168 -43 q111 0 253.5 72t271.5 137l-132 -289q-66 -12 -161 -20t-265 -8h-135h-45t-47 -2q-33 0 -61.5 4t-48.5 18q-102 51 -161 149.5t-59 213.5zM317 1179v23q33 45 176.5 139t171.5 94q29 0 171.5 -92t177.5 -141v-23q-66 -27 -132 -53q-39 29 -96 61.5t-121 59.5 q-72 -33 -121 -59.5t-96 -61.5q-31 6 -77 28.5t-54 24.5z" />
<glyph unicode="&#x10a;" horiz-adv-x="1585" d="M80 598q0 115 32.5 225.5t94.5 196.5q227 279 600 278q92 12 158.5 19.5t119.5 7.5q41 0 112 -9t221.5 -93.5t150.5 -102.5t-25 -24q-125 -53 -250 -105h-24q-86 94 -194.5 146.5t-231.5 52.5q-141 -23 -256 -121t-157 -218t-42 -228q0 -115 40 -217.5t120 -178.5 q66 -57 142.5 -91t158.5 -34q47 0 218 43t431 197q-25 -119 -49 -205q-27 -82 -39 -123q-14 -4 -14 -8q-88 -12 -180.5 -16t-198.5 -4h-29h-24q-39 0 -78 1t-76 1h-23q-27 -4 -56.5 -4h-45.5q-168 0 -297 57t-219 201.5t-90 355.5zM731 1593q41 35 68.5 63.5t66.5 74.5 q27 -35 45 -54t86 -80l-20 -18l-43 -47q-37 -33 -68 -72q-53 63 -113 117z" />
<glyph unicode="&#x10b;" horiz-adv-x="1200" d="M61 369q0 119 53.5 213t155.5 180q129 61 320.5 96t544.5 35q6 -8 35.5 1t33.5 9q6 0 4 -7.5t-16 -23.5q-47 -59 -101.5 -114.5t-101.5 -85.5q-6 2 -135 47t-178 45q-45 0 -84 -16q-111 -72 -177.5 -165.5t-66.5 -213.5q12 -78 43 -140.5t92 -91.5q78 -43 168 -43 q111 0 253.5 72t271.5 137l-132 -289q-66 -12 -161 -20t-265 -8h-135h-45t-47 -2q-33 0 -61.5 4t-48.5 18q-102 51 -161 149.5t-59 213.5zM539 1208q41 35 68.5 63.5t66.5 74.5q27 -35 45 -54t86 -80l-20 -18l-43 -47q-37 -33 -68 -72q-53 63 -113 117z" />
<glyph unicode="&#x10c;" horiz-adv-x="1585" d="M80 598q0 115 32.5 225.5t94.5 196.5q227 279 600 278q92 12 158.5 19.5t119.5 7.5q41 0 112 -9t221.5 -93.5t150.5 -102.5t-25 -24q-125 -53 -250 -105h-24q-86 94 -194.5 146.5t-231.5 52.5q-141 -23 -256 -121t-157 -218t-42 -228q0 -115 40 -217.5t120 -178.5 q66 -57 142.5 -91t158.5 -34q47 0 218 43t431 197q-25 -119 -49 -205q-27 -82 -39 -123q-14 -4 -14 -8q-88 -12 -180.5 -16t-198.5 -4h-29h-24q-39 0 -78 1t-76 1h-23q-27 -4 -56.5 -4h-45.5q-168 0 -297 57t-219 201.5t-90 355.5zM493 1655v23q66 27 131 53 q39 -31 94.5 -60.5t122.5 -60.5q135 59 217 121q31 -6 77 -28.5t55 -24.5v-23q-33 -47 -177.5 -140t-171.5 -93q-31 0 -172 93t-176 140z" />
<glyph unicode="&#x10d;" horiz-adv-x="1200" d="M61 369q0 119 53.5 213t155.5 180q129 61 320.5 96t544.5 35q6 -8 35.5 1t33.5 9q6 0 4 -7.5t-16 -23.5q-47 -59 -101.5 -114.5t-101.5 -85.5q-6 2 -135 47t-178 45q-45 0 -84 -16q-111 -72 -177.5 -165.5t-66.5 -213.5q12 -78 43 -140.5t92 -91.5q78 -43 168 -43 q111 0 253.5 72t271.5 137l-132 -289q-66 -12 -161 -20t-265 -8h-135h-45t-47 -2q-33 0 -61.5 4t-48.5 18q-102 51 -161 149.5t-59 213.5zM346 1263v23q66 27 131 53q39 -31 94.5 -60.5t122.5 -60.5q135 59 217 121q31 -6 77 -28.5t55 -24.5v-23q-33 -47 -177.5 -140 t-171.5 -93q-31 0 -172 93t-176 140z" />
<glyph unicode="&#x10e;" horiz-adv-x="1536" d="M57 -8q8 31 37 93t36 124.5t12 179.5t5 287v39v35v30v27v22q0 35 -1 70t-1 72v20q0 150 -57 273q-2 20 6 20q115 0 228.5 -2t228.5 -4h37q141 0 270 14h82q158 0 257 -42.5t179 -200.5t80 -349q0 -145 -49 -281t-145 -237q-86 -98 -201 -142t-231.5 -53.5t-313.5 -9.5 q-82 0 -243.5 7.5t-215.5 7.5zM401 1646v23q66 27 131 53q39 -31 94.5 -60.5t122.5 -60.5q135 59 217 121q31 -6 77 -28.5t55 -24.5v-23q-33 -47 -177.5 -140t-171.5 -93q-31 0 -172 93t-176 140zM424 371q0 -47 2 -96.5t8 -96.5q10 -20 25.5 -34.5t58.5 -33t111 -18.5 q98 0 190 52.5t178 140.5q70 84 111 189.5t41 215.5q0 47 -8.5 96.5t-26.5 94.5q-53 141 -138 198.5t-163 73.5t-100 16q-43 0 -108.5 -28.5t-99.5 -42t-44 -81t-19 -130.5q0 -109 -9 -303.5t-9 -212.5z" />
<glyph unicode="&#x10f;" horiz-adv-x="1300" d="M66 420q0 113 42 207t124.5 158.5t181.5 72.5q45 14 100 14q39 0 81 -6t64 -8q16 10 0 35q-98 86 -262 197.5t-250 171.5v8q152 0 262.5 -1t229.5 -5l57 -47q55 -57 111 -115q164 -152 276.5 -279.5t143.5 -242.5q16 -66 16 -121q0 -94 -37 -181.5t-114.5 -162t-189 -103 t-279.5 -28.5h-60q-135 0 -221 18t-149.5 84t-95 152t-31.5 182zM379 444q0 -61 18.5 -117.5t55 -96.5t74.5 -56t122 -43q82 0 142.5 55.5t109.5 145.5q31 66 31 145q0 49 -11.5 88t-45 74t-98 59.5t-130.5 24.5q-53 0 -101 -15.5t-90 -57.5t-59.5 -95t-17.5 -111zM926 1122 v8q49 66 81.5 113t32.5 96q0 16 -6 35q-14 23 -53 73t-55 77h8h213q100 -53 100 -164q0 -29 -4 -45q-12 -55 -47 -102.5t-88 -90.5q-14 -2 -32.5 -3t-28.5 -1q-16 0 -55.5 2t-65.5 2z" />
<glyph unicode="&#x110;" horiz-adv-x="1536" d="M57 -8q8 31 37 93t36 124.5t12 179.5t5 287v39v35v30v27v22q0 35 -1 70t-1 72v20q0 150 -57 273q-2 20 6 20q115 0 228.5 -2t228.5 -4h37q141 0 270 14h82q158 0 257 -42.5t179 -200.5t80 -349q0 -145 -49 -281t-145 -237q-86 -98 -201 -142t-231.5 -53.5t-313.5 -9.5 q-82 0 -243.5 7.5t-215.5 7.5zM58 577v115h575v-115h-575zM424 371q0 -47 2 -96.5t8 -96.5q10 -20 25.5 -34.5t58.5 -33t111 -18.5q98 0 190 52.5t178 140.5q70 84 111 189.5t41 215.5q0 47 -8.5 96.5t-26.5 94.5q-53 141 -138 198.5t-163 73.5t-100 16q-43 0 -108.5 -28.5 t-99.5 -42t-44 -81t-19 -130.5q0 -109 -9 -303.5t-9 -212.5z" />
<glyph unicode="&#x111;" horiz-adv-x="1300" d="M66 420q0 113 42 207t124.5 158.5t181.5 72.5q45 14 100 14q39 0 81 -6t64 -8q16 10 0 35q-98 86 -262 197.5t-250 171.5v8q152 0 262.5 -1t229.5 -5l57 -47q55 -57 111 -115q164 -152 276.5 -279.5t143.5 -242.5q16 -66 16 -121q0 -94 -37 -181.5t-114.5 -162t-189 -103 t-279.5 -28.5h-60q-135 0 -221 18t-149.5 84t-95 152t-31.5 182zM379 444q0 -61 18.5 -117.5t55 -96.5t74.5 -56t122 -43q82 0 142.5 55.5t109.5 145.5q31 66 31 145q0 49 -11.5 88t-45 74t-98 59.5t-130.5 24.5q-53 0 -101 -15.5t-90 -57.5t-59.5 -95t-17.5 -111zM668 1013 v115h575v-115h-575z" />
<glyph unicode="&#x112;" horiz-adv-x="1052" d="M109 1298l8 9q84 0 277.5 -10.5t262.5 -10.5q100 0 160 5t108 14.5t62 13.5q8 0 8 -10t-8 -39q-12 -31 -30.5 -100.5t-22.5 -82.5q-10 -4 -21 -8q-80 0 -257 4t-193 4q-18 -14 -23 -24q-4 -27 -6 -64.5t-2 -74.5q0 -31 2 -92.5t2 -90.5q2 -6 17 -12q49 -8 91 -10t101 -2 q86 0 154.5 6t161.5 18q0 -45 -7.5 -113.5t-11.5 -103.5q-12 -4 -22 -8q-57 0 -189.5 10.5t-179.5 10.5q-49 0 -102 -7q-18 -14 -19 -16q-2 -16 -2 -35.5v-29.5q0 -35 4 -107t4 -109q0 -41 29 -40q92 -12 194 -13q76 0 148 8.5t131 28.5q16 0 16 -22v-23q4 -27 4 -50.5 v-45.5v-35q0 -18 -1 -33.5t-3 -27.5q-74 0 -229.5 6t-237.5 6l-368 -4q-4 6 -6 8q23 145 30 299t7 352v43v39v33v29v26q0 39 -1.5 78t-1.5 80v22q0 78 -14 161t-24 140zM203 1477q-2 2 0 14q47 104 94 211q47 -10 112.5 -14.5t139.5 -4.5q96 0 196.5 5.5t157.5 9.5v-19 l-84 -202q-8 0 -12 -9q-66 10 -118 12.5t-140 2.5q-84 0 -214 -3t-132 -3z" />
<glyph unicode="&#x113;" d="M61 367q0 117 51.5 230.5t177.5 197.5t265 84q61 6 129 12t100 6q74 0 127.5 -11.5t92 -37t65.5 -39.5q27 -23 58.5 -83t31.5 -140q0 -92 -41 -164q-14 -4 -18 -8q-76 10 -138.5 12t-164.5 2q-152 0 -242 -2t-168 -4q-12 -12 -12 -41q0 -16 2 -36.5t2 -22.5 q0 -49 29.5 -95.5t96 -82t165.5 -35.5q70 0 125 26q70 23 146.5 55.5t217.5 112.5q2 -4 0 -18l-151 -297q-8 -4 -17 -11q-63 0 -196 10.5t-177 10.5q-25 0 -44 -1t-87 -9q-147 0 -218.5 28.5t-118 82t-68 122t-21.5 146.5zM262 1043q-2 2 0 14q47 104 94 211 q47 -10 112.5 -14.5t139.5 -4.5q96 0 196.5 5.5t157.5 9.5v-19l-84 -202q-8 0 -12 -9q-66 10 -118 12.5t-140 2.5q-84 0 -214 -3t-132 -3zM408 596q0 -8 8 -16q31 -6 64.5 -8.5t78.5 -2.5q63 0 161.5 5.5t110.5 5.5q15 4 19 8q6 16 3 32.5t-10 34t-57.5 61.5t-88.5 51t-60 7 q-57 0 -105.5 -32.5t-97.5 -90.5q-12 -18 -19 -31.5t-7 -23.5z" />
<glyph unicode="&#x114;" horiz-adv-x="1052" d="M109 1298l8 9q84 0 277.5 -10.5t262.5 -10.5q100 0 160 5t108 14.5t62 13.5q8 0 8 -10t-8 -39q-12 -31 -30.5 -100.5t-22.5 -82.5q-10 -4 -21 -8q-80 0 -257 4t-193 4q-18 -14 -23 -24q-4 -27 -6 -64.5t-2 -74.5q0 -31 2 -92.5t2 -90.5q2 -6 17 -12q49 -8 91 -10t101 -2 q86 0 154.5 6t161.5 18q0 -45 -7.5 -113.5t-11.5 -103.5q-12 -4 -22 -8q-57 0 -189.5 10.5t-179.5 10.5q-49 0 -102 -7q-18 -14 -19 -16q-2 -16 -2 -35.5v-29.5q0 -35 4 -107t4 -109q0 -41 29 -40q92 -12 194 -13q76 0 148 8.5t131 28.5q16 0 16 -22v-23q4 -27 4 -50.5 v-45.5v-35q0 -18 -1 -33.5t-3 -27.5q-74 0 -229.5 6t-237.5 6l-368 -4q-4 6 -6 8q23 145 30 299t7 352v43v39v33v29v26q0 39 -1.5 78t-1.5 80v22q0 78 -14 161t-24 140zM205 1663v23q66 27 131 53q47 -39 102.5 -90t114.5 -72q72 20 127.5 75.5t89.5 86.5q31 -6 77 -28.5 t55 -24.5v-23q-57 -80 -150.5 -156.5t-198.5 -76.5q-82 0 -173 59.5t-175 173.5z" />
<glyph unicode="&#x115;" d="M61 367q0 117 51.5 230.5t177.5 197.5t265 84q61 6 129 12t100 6q74 0 127.5 -11.5t92 -37t65.5 -39.5q27 -23 58.5 -83t31.5 -140q0 -92 -41 -164q-14 -4 -18 -8q-76 10 -138.5 12t-164.5 2q-152 0 -242 -2t-168 -4q-12 -12 -12 -41q0 -16 2 -36.5t2 -22.5 q0 -49 29.5 -95.5t96 -82t165.5 -35.5q70 0 125 26q70 23 146.5 55.5t217.5 112.5q2 -4 0 -18l-151 -297q-8 -4 -17 -11q-63 0 -196 10.5t-177 10.5q-25 0 -44 -1t-87 -9q-147 0 -218.5 28.5t-118 82t-68 122t-21.5 146.5zM262 1257v23q66 27 131 53q47 -39 102.5 -90 t114.5 -72q72 20 127.5 75.5t89.5 86.5q31 -6 77 -28.5t55 -24.5v-23q-57 -80 -150.5 -156.5t-198.5 -76.5q-82 0 -173 59.5t-175 173.5zM408 596q0 -8 8 -16q31 -6 64.5 -8.5t78.5 -2.5q63 0 161.5 5.5t110.5 5.5q15 4 19 8q6 16 3 32.5t-10 34t-57.5 61.5t-88.5 51t-60 7 q-57 0 -105.5 -32.5t-97.5 -90.5q-12 -18 -19 -31.5t-7 -23.5z" />
<glyph unicode="&#x116;" horiz-adv-x="1052" d="M109 1298l8 9q84 0 277.5 -10.5t262.5 -10.5q100 0 160 5t108 14.5t62 13.5q8 0 8 -10t-8 -39q-12 -31 -30.5 -100.5t-22.5 -82.5q-10 -4 -21 -8q-80 0 -257 4t-193 4q-18 -14 -23 -24q-4 -27 -6 -64.5t-2 -74.5q0 -31 2 -92.5t2 -90.5q2 -6 17 -12q49 -8 91 -10t101 -2 q86 0 154.5 6t161.5 18q0 -45 -7.5 -113.5t-11.5 -103.5q-12 -4 -22 -8q-57 0 -189.5 10.5t-179.5 10.5q-49 0 -102 -7q-18 -14 -19 -16q-2 -16 -2 -35.5v-29.5q0 -35 4 -107t4 -109q0 -41 29 -40q92 -12 194 -13q76 0 148 8.5t131 28.5q16 0 16 -22v-23q4 -27 4 -50.5 v-45.5v-35q0 -18 -1 -33.5t-3 -27.5q-74 0 -229.5 6t-237.5 6l-368 -4q-4 6 -6 8q23 145 30 299t7 352v43v39v33v29v26q0 39 -1.5 78t-1.5 80v22q0 78 -14 161t-24 140zM420 1571q41 35 68.5 63.5t66.5 74.5q27 -35 45 -54t86 -80l-20 -18l-43 -47q-37 -33 -68 -72 q-53 63 -113 117z" />
<glyph unicode="&#x117;" d="M61 367q0 117 51.5 230.5t177.5 197.5t265 84q61 6 129 12t100 6q74 0 127.5 -11.5t92 -37t65.5 -39.5q27 -23 58.5 -83t31.5 -140q0 -92 -41 -164q-14 -4 -18 -8q-76 10 -138.5 12t-164.5 2q-152 0 -242 -2t-168 -4q-12 -12 -12 -41q0 -16 2 -36.5t2 -22.5 q0 -49 29.5 -95.5t96 -82t165.5 -35.5q70 0 125 26q70 23 146.5 55.5t217.5 112.5q2 -4 0 -18l-151 -297q-8 -4 -17 -11q-63 0 -196 10.5t-177 10.5q-25 0 -44 -1t-87 -9q-147 0 -218.5 28.5t-118 82t-68 122t-21.5 146.5zM408 596q0 -8 8 -16q31 -6 64.5 -8.5t78.5 -2.5 q63 0 161.5 5.5t110.5 5.5q15 4 19 8q6 16 3 32.5t-10 34t-57.5 61.5t-88.5 51t-60 7q-57 0 -105.5 -32.5t-97.5 -90.5q-12 -18 -19 -31.5t-7 -23.5zM477 1132q41 35 68.5 63.5t66.5 74.5q27 -35 45 -54t86 -80l-20 -18l-43 -47q-37 -33 -68 -72q-53 63 -113 117z" />
<glyph unicode="&#x118;" horiz-adv-x="1052" d="M109 1298l8 9q84 0 277.5 -10.5t262.5 -10.5q100 0 160 5t108 14.5t62 13.5q8 0 8 -10t-8 -39q-12 -31 -30.5 -100.5t-22.5 -82.5q-10 -4 -21 -8q-80 0 -257 4t-193 4q-18 -14 -23 -24q-4 -27 -6 -64.5t-2 -74.5q0 -31 2 -92.5t2 -90.5q2 -6 17 -12q49 -8 91 -10t101 -2 q86 0 154.5 6t161.5 18q0 -45 -7.5 -113.5t-11.5 -103.5q-12 -4 -22 -8q-57 0 -189.5 10.5t-179.5 10.5q-49 0 -102 -7q-18 -14 -19 -16q-2 -16 -2 -35.5v-29.5q0 -35 4 -107t4 -109q0 -41 29 -40q92 -12 194 -13q76 0 148 8.5t131 28.5q16 0 16 -22v-23q4 -27 4 -50.5 v-45.5v-35q0 -18 -1 -33.5t-3 -27.5q-74 0 -229.5 6t-237.5 6l-368 -4q-4 6 -6 8q23 145 30 299t7 352v43v39v33v29v26q0 39 -1.5 78t-1.5 80v22q0 78 -14 161t-24 140zM594 -266q0 68 46 141.5t132 132.5h115q-74 -76 -93.5 -99.5t-19.5 -72.5q0 -39 24.5 -63.5t61.5 -24.5 q23 0 57.5 14.5t63.5 34.5q6 -12 8 -45t6 -45q-78 -59 -133 -83.5t-104 -24.5q-66 0 -115 37.5t-49 97.5z" />
<glyph unicode="&#x119;" d="M61 367q0 117 51.5 230.5t177.5 197.5t265 84q61 6 129 12t100 6q74 0 127.5 -11.5t92 -37t65.5 -39.5q27 -23 58.5 -83t31.5 -140q0 -92 -41 -164q-14 -4 -18 -8q-76 10 -138.5 12t-164.5 2q-152 0 -242 -2t-168 -4q-12 -12 -12 -41q0 -16 2 -36.5t2 -22.5 q0 -49 29.5 -95.5t96 -82t165.5 -35.5q70 0 125 26q70 23 146.5 55.5t217.5 112.5q2 -4 0 -18l-151 -297q-8 -4 -17 -11q-63 0 -196 10.5t-177 10.5q-25 0 -44 -1t-87 -9q-147 0 -218.5 28.5t-118 82t-68 122t-21.5 146.5zM408 596q0 -8 8 -16q31 -6 64.5 -8.5t78.5 -2.5 q63 0 161.5 5.5t110.5 5.5q15 4 19 8q6 16 3 32.5t-10 34t-57.5 61.5t-88.5 51t-60 7q-57 0 -105.5 -32.5t-97.5 -90.5q-12 -18 -19 -31.5t-7 -23.5zM760 -133q0 68 46 141.5t132 132.5h115q-74 -76 -93.5 -99.5t-19.5 -72.5q0 -39 24.5 -63.5t61.5 -24.5q23 0 57.5 14.5 t63.5 34.5q6 -12 8 -45t6 -45q-78 -59 -133 -83.5t-104 -24.5q-66 0 -115 37.5t-49 97.5z" />
<glyph unicode="&#x11a;" horiz-adv-x="1052" d="M109 1298l8 9q84 0 277.5 -10.5t262.5 -10.5q100 0 160 5t108 14.5t62 13.5q8 0 8 -10t-8 -39q-12 -31 -30.5 -100.5t-22.5 -82.5q-10 -4 -21 -8q-80 0 -257 4t-193 4q-18 -14 -23 -24q-4 -27 -6 -64.5t-2 -74.5q0 -31 2 -92.5t2 -90.5q2 -6 17 -12q49 -8 91 -10t101 -2 q86 0 154.5 6t161.5 18q0 -45 -7.5 -113.5t-11.5 -103.5q-12 -4 -22 -8q-57 0 -189.5 10.5t-179.5 10.5q-49 0 -102 -7q-18 -14 -19 -16q-2 -16 -2 -35.5v-29.5q0 -35 4 -107t4 -109q0 -41 29 -40q92 -12 194 -13q76 0 148 8.5t131 28.5q16 0 16 -22v-23q4 -27 4 -50.5 v-45.5v-35q0 -18 -1 -33.5t-3 -27.5q-74 0 -229.5 6t-237.5 6l-368 -4q-4 6 -6 8q23 145 30 299t7 352v43v39v33v29v26q0 39 -1.5 78t-1.5 80v22q0 78 -14 161t-24 140zM205 1663v23q66 27 131 53q39 -31 94.5 -60.5t122.5 -60.5q135 59 217 121q31 -6 77 -28.5t55 -24.5 v-23q-33 -47 -177.5 -140t-171.5 -93q-31 0 -172 93t-176 140z" />
<glyph unicode="&#x11b;" d="M61 367q0 117 51.5 230.5t177.5 197.5t265 84q61 6 129 12t100 6q74 0 127.5 -11.5t92 -37t65.5 -39.5q27 -23 58.5 -83t31.5 -140q0 -92 -41 -164q-14 -4 -18 -8q-76 10 -138.5 12t-164.5 2q-152 0 -242 -2t-168 -4q-12 -12 -12 -41q0 -16 2 -36.5t2 -22.5 q0 -49 29.5 -95.5t96 -82t165.5 -35.5q70 0 125 26q70 23 146.5 55.5t217.5 112.5q2 -4 0 -18l-151 -297q-8 -4 -17 -11q-63 0 -196 10.5t-177 10.5q-25 0 -44 -1t-87 -9q-147 0 -218.5 28.5t-118 82t-68 122t-21.5 146.5zM262 1272v23q66 27 131 53q39 -31 94.5 -60.5 t122.5 -60.5q135 59 217 121q31 -6 77 -28.5t55 -24.5v-23q-33 -47 -177.5 -140t-171.5 -93q-31 0 -172 93t-176 140zM408 596q0 -8 8 -16q31 -6 64.5 -8.5t78.5 -2.5q63 0 161.5 5.5t110.5 5.5q15 4 19 8q6 16 3 32.5t-10 34t-57.5 61.5t-88.5 51t-60 7q-57 0 -105.5 -32.5 t-97.5 -90.5q-12 -18 -19 -31.5t-7 -23.5z" />
<glyph unicode="&#x11c;" horiz-adv-x="1701" d="M82 598q0 203 99.5 372t281.5 236q92 43 196.5 58.5t233.5 15.5q133 27 272 27q137 0 235.5 -27t140.5 -77t74 -91t38 -84q-10 -8 -11 -12q-115 -12 -195.5 -19.5t-141.5 -7.5q-27 51 -72 96t-96 54q-51 14 -110.5 25.5t-111.5 11.5q-82 0 -143 -31 q-119 -37 -223.5 -139.5t-129 -206t-24.5 -183.5q0 -131 54.5 -243.5t160.5 -190.5q66 -33 131 -65q76 -33 144 -33h41q20 6 80.5 18.5t142.5 65.5t102 149q12 35 17.5 76t5.5 92q0 23 -2 70t-2 68q31 4 85 4t87 2h131q2 -2 6 -3t8 -3q0 -66 -21.5 -195t-21.5 -182t9.5 -94 t23.5 -68t30.5 -57.5t20.5 -44.5q-10 0 -13 -2.5t-3 -4.5q-125 20 -262 21q-80 0 -260.5 -10.5t-239.5 -10.5q-80 -12 -166 -12q-152 0 -293 54.5t-225 220t-84 360.5zM520 1523v23q33 45 176.5 139t171.5 94q29 0 171.5 -92t177.5 -141v-23q-66 -27 -132 -53 q-39 29 -96 61.5t-121 59.5q-72 -33 -121 -59.5t-96 -61.5q-31 6 -77 28.5t-54 24.5z" />
<glyph unicode="&#x11d;" horiz-adv-x="1220" d="M8 -217q0 39 13.5 77t37 72.5t45 53t148.5 106.5q-6 18 -43 57t-41 50q-70 94 -70 233q0 102 46 202.5t160 168t251 82.5q39 14 103.5 20t121.5 6q47 0 102.5 -3t116.5 -5q39 0 86.5 11.5t106.5 25.5v-45q-47 -176 -59.5 -392t-12.5 -497q0 -94 -48 -177t-143 -145.5 t-265 -81t-326 -34.5q-109 0 -185.5 27.5t-110.5 85t-34 102.5zM252 1128v23q33 45 176.5 139t171.5 94q29 0 171.5 -92t177.5 -141v-23q-66 -27 -132 -53q-39 29 -96 61.5t-121 59.5q-72 -33 -121 -59.5t-96 -61.5q-31 6 -77 28.5t-54 24.5zM319 -158q0 -70 47.5 -106.5 t108.5 -36.5q31 0 67 8t76 23q80 35 137.5 105.5t71.5 152.5q12 100 17.5 202.5t5.5 237.5v27v24q0 35 -1 71t-1 73v20q-8 27 -18.5 38t-105.5 50t-157 39q-57 -23 -98 -75t-55 -117q-14 -51 -15 -117q0 -59 15.5 -110.5t50.5 -90.5q37 -31 85 -44t107 -13q39 0 63.5 3 t74.5 13l6 -4q-4 -33 -11.5 -63.5t-31.5 -63.5q-182 -20 -285.5 -57t-148.5 -156q-4 -20 -5 -33z" />
<glyph unicode="&#x11e;" horiz-adv-x="1701" d="M82 598q0 203 99.5 372t281.5 236q92 43 196.5 58.5t233.5 15.5q133 27 272 27q137 0 235.5 -27t140.5 -77t74 -91t38 -84q-10 -8 -11 -12q-115 -12 -195.5 -19.5t-141.5 -7.5q-27 51 -72 96t-96 54q-51 14 -110.5 25.5t-111.5 11.5q-82 0 -143 -31 q-119 -37 -223.5 -139.5t-129 -206t-24.5 -183.5q0 -131 54.5 -243.5t160.5 -190.5q66 -33 131 -65q76 -33 144 -33h41q20 6 80.5 18.5t142.5 65.5t102 149q12 35 17.5 76t5.5 92q0 23 -2 70t-2 68q31 4 85 4t87 2h131q2 -2 6 -3t8 -3q0 -66 -21.5 -195t-21.5 -182t9.5 -94 t23.5 -68t30.5 -57.5t20.5 -44.5q-10 0 -13 -2.5t-3 -4.5q-125 20 -262 21q-80 0 -260.5 -10.5t-239.5 -10.5q-80 -12 -166 -12q-152 0 -293 54.5t-225 220t-84 360.5zM538 1698v23q66 27 131 53q47 -39 102.5 -90t114.5 -72q72 20 127.5 75.5t89.5 86.5q31 -6 77 -28.5 t55 -24.5v-23q-57 -80 -150.5 -156.5t-198.5 -76.5q-82 0 -173 59.5t-175 173.5z" />
<glyph unicode="&#x11f;" horiz-adv-x="1220" d="M8 -217q0 39 13.5 77t37 72.5t45 53t148.5 106.5q-6 18 -43 57t-41 50q-70 94 -70 233q0 102 46 202.5t160 168t251 82.5q39 14 103.5 20t121.5 6q47 0 102.5 -3t116.5 -5q39 0 86.5 11.5t106.5 25.5v-45q-47 -176 -59.5 -392t-12.5 -497q0 -94 -48 -177t-143 -145.5 t-265 -81t-326 -34.5q-109 0 -185.5 27.5t-110.5 85t-34 102.5zM252 1329v23q66 27 131 53q47 -39 102.5 -90t114.5 -72q72 20 127.5 75.5t89.5 86.5q31 -6 77 -28.5t55 -24.5v-23q-57 -80 -150.5 -156.5t-198.5 -76.5q-82 0 -173 59.5t-175 173.5zM319 -158 q0 -70 47.5 -106.5t108.5 -36.5q31 0 67 8t76 23q80 35 137.5 105.5t71.5 152.5q12 100 17.5 202.5t5.5 237.5v27v24q0 35 -1 71t-1 73v20q-8 27 -18.5 38t-105.5 50t-157 39q-57 -23 -98 -75t-55 -117q-14 -51 -15 -117q0 -59 15.5 -110.5t50.5 -90.5q37 -31 85 -44 t107 -13q39 0 63.5 3t74.5 13l6 -4q-4 -33 -11.5 -63.5t-31.5 -63.5q-182 -20 -285.5 -57t-148.5 -156q-4 -20 -5 -33z" />
<glyph unicode="&#x120;" horiz-adv-x="1701" d="M82 598q0 203 99.5 372t281.5 236q92 43 196.5 58.5t233.5 15.5q133 27 272 27q137 0 235.5 -27t140.5 -77t74 -91t38 -84q-10 -8 -11 -12q-115 -12 -195.5 -19.5t-141.5 -7.5q-27 51 -72 96t-96 54q-51 14 -110.5 25.5t-111.5 11.5q-82 0 -143 -31 q-119 -37 -223.5 -139.5t-129 -206t-24.5 -183.5q0 -131 54.5 -243.5t160.5 -190.5q66 -33 131 -65q76 -33 144 -33h41q20 6 80.5 18.5t142.5 65.5t102 149q12 35 17.5 76t5.5 92q0 23 -2 70t-2 68q31 4 85 4t87 2h131q2 -2 6 -3t8 -3q0 -66 -21.5 -195t-21.5 -182t9.5 -94 t23.5 -68t30.5 -57.5t20.5 -44.5q-10 0 -13 -2.5t-3 -4.5q-125 20 -262 21q-80 0 -260.5 -10.5t-239.5 -10.5q-80 -12 -166 -12q-152 0 -293 54.5t-225 220t-84 360.5zM760 1618q41 35 68.5 63.5t66.5 74.5q27 -35 45 -54t86 -80l-20 -18l-43 -47q-37 -33 -68 -72 q-53 63 -113 117z" />
<glyph unicode="&#x121;" horiz-adv-x="1220" d="M8 -217q0 39 13.5 77t37 72.5t45 53t148.5 106.5q-6 18 -43 57t-41 50q-70 94 -70 233q0 102 46 202.5t160 168t251 82.5q39 14 103.5 20t121.5 6q47 0 102.5 -3t116.5 -5q39 0 86.5 11.5t106.5 25.5v-45q-47 -176 -59.5 -392t-12.5 -497q0 -94 -48 -177t-143 -145.5 t-265 -81t-326 -34.5q-109 0 -185.5 27.5t-110.5 85t-34 102.5zM319 -158q0 -70 47.5 -106.5t108.5 -36.5q31 0 67 8t76 23q80 35 137.5 105.5t71.5 152.5q12 100 17.5 202.5t5.5 237.5v27v24q0 35 -1 71t-1 73v20q-8 27 -18.5 38t-105.5 50t-157 39q-57 -23 -98 -75 t-55 -117q-14 -51 -15 -117q0 -59 15.5 -110.5t50.5 -90.5q37 -31 85 -44t107 -13q39 0 63.5 3t74.5 13l6 -4q-4 -33 -11.5 -63.5t-31.5 -63.5q-182 -20 -285.5 -57t-148.5 -156q-4 -20 -5 -33zM504 1155q41 35 68.5 63.5t66.5 74.5q27 -35 45 -54t86 -80l-20 -18l-43 -47 q-37 -33 -68 -72q-53 63 -113 117z" />
<glyph unicode="&#x122;" horiz-adv-x="1626" d="M12 612q0 203 99.5 372t281.5 237q92 43 196.5 58t233.5 15q133 27 273 27q137 0 235.5 -26.5t140 -77t73.5 -91.5t38 -84q-10 -8 -10 -12q-115 -12 -196 -19t-142 -7q-27 51 -72 96t-96 53q-51 14 -110.5 25.5t-110.5 11.5q-82 0 -144 -31q-119 -37 -223 -139 t-128.5 -205.5t-24.5 -183.5q0 -131 54 -244t161 -190q66 -33 131 -66q76 -33 143 -33h41q20 6 80.5 18.5t142.5 66t103 149.5q12 35 17 76t5 92q0 23 -2 69.5t-2 67.5q31 4 85 4t87 2h131q2 -2 6 -3t9 -3q0 -66 -21.5 -195t-21.5 -182t9 -94t23.5 -67.5t30.5 -57.5t21 -45 q-10 0 -13.5 -2t-3.5 -4q-125 20 -262 20q-80 0 -260 -10t-240 -10q-80 -12 -166 -13q-152 0 -293 54.5t-225 220.5t-84 360zM610 -322q10 14 22.5 39t18.5 33q78 -59 178 -59q113 0 113 71q0 29 -15.5 41.5t-58.5 12.5q-39 0 -66.5 -2t-64.5 -15q18 29 37 64v2l117 31v-7 q23 6 35 8.5t28 2.5q78 0 122 -31t44 -86q0 -74 -73.5 -124t-188.5 -50q-111 0 -248 69z" />
<glyph unicode="&#x123;" horiz-adv-x="1214" d="M8 -217q0 39 13.5 77t37 72.5t45 53t148.5 106.5q-6 18 -43 57t-41 50q-70 94 -70 233q0 102 46 202.5t160 168t251 82.5q39 14 103.5 20t121.5 6q47 0 102.5 -3t116.5 -5q39 0 86.5 11.5t106.5 25.5v-45q-47 -176 -59.5 -392t-12.5 -497q0 -94 -48 -177t-143 -145.5 t-265 -81t-326 -34.5q-109 0 -185.5 27.5t-110.5 85t-34 102.5zM319 -158q0 -70 47.5 -106.5t108.5 -36.5q31 0 67 8t76 23q80 35 137.5 105.5t71.5 152.5q12 100 17.5 202.5t5.5 237.5v27v24q0 35 -1 71t-1 73v20q-8 27 -18.5 38t-105.5 50t-157 39q-57 -23 -98 -75 t-55 -117q-14 -51 -15 -117q0 -59 15.5 -110.5t50.5 -90.5q37 -31 85 -44t107 -13q39 0 63.5 3t74.5 13l6 -4q-4 -33 -11.5 -63.5t-31.5 -63.5q-182 -20 -285.5 -57t-148.5 -156q-4 -20 -5 -33zM477 1317q-2 10 2 31q14 57 45 107t78 91q23 2 43.5 6t46.5 7q37 2 56 2 q23 -6 30 -7q0 -10 2 -20q-35 -49 -69 -98q-35 -59 -25 -113q12 -41 62.5 -94.5t60.5 -73.5q-49 -8 -102.5 -12t-102.5 -8q-55 41 -90 86t-37 96z" />
<glyph unicode="&#x124;" horiz-adv-x="1495" d="M98 0q20 150 29.5 315.5t9.5 346.5q0 76 -2 230.5t-2 231.5q-10 82 -18 164q31 2 82 2h79h115t84 -2q-53 -184 -53 -387q-4 -29 -5 -45t-1 -37q0 -25 5 -40t23 -15q72 0 235 -4t173 -4h25h110q47 6 68 8q14 12 14 16v64q0 176 -7 263t-40 181h381l10 -2 q-33 -100 -46 -209.5t-13 -240.5q0 -102 -2 -205t-4 -205q0 -98 4 -181t13 -137.5t19.5 -80t14.5 -39.5l-10 -4q-57 0 -176 2t-177 2q-18 10 -10 43q20 129 31.5 252t11.5 243q0 31 -27 31q-102 0 -307 2t-309 2q-4 -8 -9 -12t-7 -6q0 -59 4 -201.5t4 -151.5q0 -6 -11.5 -16 t-5.5 -18q12 -8 21 -9q0 -25 8 -76t8 -77q-82 -2 -182 -2h-152zM434 1523v23q33 45 176.5 139t171.5 94q29 0 171.5 -92t177.5 -141v-23q-66 -27 -132 -53q-39 29 -96 61.5t-121 59.5q-72 -33 -121 -59.5t-96 -61.5q-31 6 -77 28.5t-54 24.5z" />
<glyph unicode="&#x125;" horiz-adv-x="1341" d="M41 1276q-2 6 3 9t13 3q68 0 221.5 10.5t208.5 10.5v-33q-25 -63 -38 -148.5t-13 -236.5v-92q4 -6 8.5 -8.5t6.5 -2.5q49 23 184 45.5t186 45.5q59 18 125 18q129 0 206 -59.5t108.5 -135t31.5 -157.5q0 -53 -12 -107q-12 -72 -52 -136t-106 -134q0 -8 4 -13t7 -5 q84 8 170 18q0 -31 -25 -74t-41 -74.5t-74 -37.5q-53 -2 -106 -5q-76 8 -144.5 10.5t-160.5 2.5h-109.5t-107.5 -2q213 164 318 272.5t105 259.5q0 33 -11 82t-69.5 91t-123.5 42q-63 -25 -124 -75t-122.5 -139t-89 -224t-27.5 -305l-8 -8q-59 0 -136 1t-173 3 q0 63 20.5 166.5t27.5 189.5t13 193.5t6 244.5q0 174 -14 320q0 43 -19.5 76.5t-66.5 97.5zM405 1437v23q33 45 176.5 139t171.5 94q29 0 171.5 -92t177.5 -141v-23q-66 -27 -132 -53q-39 29 -96 61.5t-121 59.5q-72 -33 -121 -59.5t-96 -61.5q-31 6 -77 28.5t-54 24.5z" />
<glyph unicode="&#x126;" horiz-adv-x="1495" d="M17 974v115h575v-115h-575zM98 0q20 150 29.5 315.5t9.5 346.5q0 76 -2 230.5t-2 231.5q-10 82 -18 164q31 2 82 2h79h115t84 -2q-53 -184 -53 -387q-4 -29 -5 -45t-1 -37q0 -25 5 -40t23 -15q72 0 235 -4t173 -4h25h110q47 6 68 8q14 12 14 16v64q0 176 -7 263t-40 181 h381l10 -2q-33 -100 -46 -209.5t-13 -240.5q0 -102 -2 -205t-4 -205q0 -98 4 -181t13 -137.5t19.5 -80t14.5 -39.5l-10 -4q-57 0 -176 2t-177 2q-18 10 -10 43q20 129 31.5 252t11.5 243q0 31 -27 31q-102 0 -307 2t-309 2q-4 -8 -9 -12t-7 -6q0 -59 4 -201.5t4 -151.5 q0 -6 -11.5 -16t-5.5 -18q12 -8 21 -9q0 -25 8 -76t8 -77q-82 -2 -182 -2h-152z" />
<glyph unicode="&#x127;" horiz-adv-x="1341" d="M41 1013v115h575v-115h-575zM41 1276q-2 6 3 9t13 3q68 0 221.5 10.5t208.5 10.5v-33q-25 -63 -38 -148.5t-13 -236.5v-92q4 -6 8.5 -8.5t6.5 -2.5q49 23 184 45.5t186 45.5q59 18 125 18q129 0 206 -59.5t108.5 -135t31.5 -157.5q0 -53 -12 -107q-12 -72 -52 -136 t-106 -134q0 -8 4 -13t7 -5q84 8 170 18q0 -31 -25 -74t-41 -74.5t-74 -37.5q-53 -2 -106 -5q-76 8 -144.5 10.5t-160.5 2.5h-109.5t-107.5 -2q213 164 318 272.5t105 259.5q0 33 -11 82t-69.5 91t-123.5 42q-63 -25 -124 -75t-122.5 -139t-89 -224t-27.5 -305l-8 -8 q-59 0 -136 1t-173 3q0 63 20.5 166.5t27.5 189.5t13 193.5t6 244.5q0 174 -14 320q0 43 -19.5 76.5t-66.5 97.5z" />
<glyph unicode="&#x128;" horiz-adv-x="563" d="M-70 1559v22q39 53 114 106.5t124 53.5t130 -26.5t165 -55.5q37 0 70.5 31t48.5 35q8 -2 16 -2q6 -23 28.5 -63t28.5 -56q-49 -39 -96 -68.5t-96 -29.5q-29 0 -140.5 44t-158.5 44q-29 0 -53.5 -30t-48.5 -58q-35 18 -66 30.5t-66 22.5zM96 2q45 336 45 721 q0 94 -14 278.5t-14 266.5q0 10 5 12t5 6h323l11 -8q-18 -145 -26.5 -298t-8.5 -316q0 -330 35 -662l-11 -10h-342q-8 0 -8 10z" />
<glyph unicode="&#x129;" horiz-adv-x="563" d="M-82 1114v22q39 53 114 106.5t124 53.5t130 -26.5t165 -55.5q37 0 70.5 31t48.5 35q8 -2 16 -2q6 -23 28.5 -63t28.5 -56q-49 -39 -96 -68.5t-96 -29.5q-29 0 -140.5 44t-158.5 44q-29 0 -53.5 -30t-48.5 -58q-35 18 -66 30.5t-66 22.5zM16 866q4 6 14.5 6t12.5 2 q55 0 201.5 28t167.5 28q45 0 45 -23q0 -43 -9.5 -121.5t-9.5 -91.5q0 -121 4 -398.5t4 -287.5l2 -10l-329 4q0 45 10 96.5t20 102.5q4 43 6.5 134t2.5 140v166q-10 66 -59.5 125t-82.5 100z" />
<glyph unicode="&#x12a;" horiz-adv-x="563" d="M-90 1440q-2 2 0 14q47 104 94 211q47 -10 112.5 -14.5t139.5 -4.5q96 0 196.5 5.5t157.5 9.5v-19l-84 -202q-8 0 -12 -9q-66 10 -118 12.5t-140 2.5q-84 0 -214 -3t-132 -3zM96 2q45 336 45 721q0 94 -14 278.5t-14 266.5q0 10 5 12t5 6h323l11 -8q-18 -145 -26.5 -298 t-8.5 -316q0 -330 35 -662l-11 -10h-342q-8 0 -8 10z" />
<glyph unicode="&#x12b;" horiz-adv-x="563" d="M-76 1051q-2 2 0 14q47 104 94 211q47 -10 112.5 -14.5t139.5 -4.5q96 0 196.5 5.5t157.5 9.5v-19l-84 -202q-8 0 -12 -9q-66 10 -118 12.5t-140 2.5q-84 0 -214 -3t-132 -3zM14 866q4 6 14.5 6t12.5 2q55 0 201.5 28t167.5 28q45 0 45 -23q0 -43 -9.5 -121.5t-9.5 -91.5 q0 -121 4 -398.5t4 -287.5l2 -10l-329 4q0 45 10 96.5t20 102.5q4 43 6.5 134t2.5 140v166q-10 66 -59.5 125t-82.5 100z" />
<glyph unicode="&#x12c;" horiz-adv-x="563" d="M-72 1714v23q66 27 131 53q47 -39 102.5 -90t114.5 -72q72 20 127.5 75.5t89.5 86.5q31 -6 77 -28.5t55 -24.5v-23q-57 -80 -150.5 -156.5t-198.5 -76.5q-82 0 -173 59.5t-175 173.5zM96 2q45 336 45 721q0 94 -14 278.5t-14 266.5q0 10 5 12t5 6h323l11 -8 q-18 -145 -26.5 -298t-8.5 -316q0 -330 35 -662l-11 -10h-342q-8 0 -8 10z" />
<glyph unicode="&#x12d;" horiz-adv-x="563" d="M-76 1294v23q66 27 131 53q47 -39 102.5 -90t114.5 -72q72 20 127.5 75.5t89.5 86.5q31 -6 77 -28.5t55 -24.5v-23q-57 -80 -150.5 -156.5t-198.5 -76.5q-82 0 -173 59.5t-175 173.5zM16 866q4 6 14.5 6t12.5 2q55 0 201.5 28t167.5 28q45 0 45 -23q0 -43 -9.5 -121.5 t-9.5 -91.5q0 -121 4 -398.5t4 -287.5l2 -10l-329 4q0 45 10 96.5t20 102.5q4 43 6.5 134t2.5 140v166q-10 66 -59.5 125t-82.5 100z" />
<glyph unicode="&#x12e;" horiz-adv-x="563" d="M55 -266q0 68 46 141.5t132 132.5h115q-74 -76 -93.5 -99.5t-19.5 -72.5q0 -39 24.5 -63.5t61.5 -24.5q23 0 57.5 14.5t63.5 34.5q6 -12 8 -45t6 -45q-78 -59 -133 -83.5t-104 -24.5q-66 0 -115 37.5t-49 97.5zM96 2q45 336 45 721q0 94 -14 278.5t-14 266.5q0 10 5 12 t5 6h323l11 -8q-18 -145 -26.5 -298t-8.5 -316q0 -330 35 -662l-11 -10h-342q-8 0 -8 10z" />
<glyph unicode="&#x12f;" horiz-adv-x="563" d="M14 866q4 6 14.5 6t12.5 2q55 0 201.5 28t167.5 28q45 0 45 -23q0 -43 -9.5 -121.5t-9.5 -91.5q0 -121 4 -398.5t4 -287.5l2 -10l-329 4q0 45 10 96.5t20 102.5q4 43 6.5 134t2.5 140v166q-10 66 -59.5 125t-82.5 100zM119 1040q-4 4 0 13q100 139 241 217 q74 -6 154 -21.5t92 -28t12 -36.5q0 -17 -2 -23q-90 -37 -165.5 -77t-151.5 -99q-45 10 -90 24.5t-90 30.5zM217 -266q0 68 46 141.5t132 132.5h115q-74 -76 -93.5 -99.5t-19.5 -72.5q0 -39 24.5 -63.5t61.5 -24.5q23 0 57.5 14.5t63.5 34.5q6 -12 8 -45t6 -45 q-78 -59 -133 -83.5t-104 -24.5q-66 0 -115 37.5t-49 97.5z" />
<glyph unicode="&#x130;" horiz-adv-x="563" d="M96 2q45 336 45 721q0 94 -14 278.5t-14 266.5q0 10 5 12t5 6h323l11 -8q-18 -145 -26.5 -298t-8.5 -316q0 -330 35 -662l-11 -10h-342q-8 0 -8 10zM135 1601q41 35 68.5 63.5t66.5 74.5q27 -35 45 -54t86 -80l-20 -18l-43 -47q-37 -33 -68 -72q-53 63 -113 117z" />
<glyph unicode="&#x131;" horiz-adv-x="563" d="M14 866q4 6 14.5 6t12.5 2q55 0 201.5 28t167.5 28q45 0 45 -23q0 -43 -9.5 -121.5t-9.5 -91.5q0 -121 4 -398.5t4 -287.5l2 -10l-329 4q0 45 10 96.5t20 102.5q4 43 6.5 134t2.5 140v166q-10 66 -59.5 125t-82.5 100z" />
<glyph unicode="&#x132;" horiz-adv-x="1392" d="M96 2q45 336 45 721q0 94 -14 278.5t-14 266.5q0 10 5 12t5 6h323l11 -8q-18 -145 -26.5 -298t-8.5 -316q0 -330 35 -662l-11 -10h-342q-8 0 -8 10zM508 -193q8 55 17 85t36 98q18 0 57 -24.5t60 -24.5q14 0 28 8q158 133 203 333.5t45 493.5v154q0 63 -17.5 192 t-17.5 172q43 6 107 6q84 0 145.5 -4t114.5 -10q0 -2 -11.5 -74.5t-11.5 -97.5q0 -172 -12 -502.5t-12 -386.5q-31 -164 -181.5 -275.5t-328.5 -142.5q-47 -4 -82 -7t-55 -3q-51 0 -84 10z" />
<glyph unicode="&#x133;" horiz-adv-x="1239" d="M14 866q4 6 14.5 6t12.5 2q55 0 201.5 28t167.5 28q45 0 45 -23q0 -43 -9.5 -121.5t-9.5 -91.5q0 -121 4 -398.5t4 -287.5l2 -10l-329 4q0 45 10 96.5t20 102.5q4 43 6.5 134t2.5 140v166q-10 66 -59.5 125t-82.5 100zM119 1040q-4 4 0 13q100 139 241 217 q74 -6 154 -21.5t92 -28t12 -36.5q0 -17 -2 -23q-90 -37 -165.5 -77t-151.5 -99q-45 10 -90 24.5t-90 30.5zM467 -375q18 27 34.5 43.5t77.5 71.5q14 0 39 -18.5t41 -10.5q100 135 134 305t34 400q0 49 -2 150.5t-2 150.5q-12 20 -16 28q-27 0 -76 -6t-74 -6q-12 0 -41 4 q18 102 21.5 117.5t21.5 65.5q0 8 8.5 6t12.5 4q115 0 252 4t229 8l4 -12q-39 -119 -53 -245t-14 -286q0 -76 4 -252t4 -190q-12 -123 -116.5 -219t-240.5 -150q-53 -12 -108 -12q-49 0 -93 11.5t-81 37.5zM749 1067v10q72 70 147 123t156 88q49 -14 105.5 -40.5 t107.5 -55.5q-143 -99 -286 -195q-53 0 -117 23q-76 33 -113 47z" />
<glyph unicode="&#x134;" horiz-adv-x="829" d="M-55 -193q8 55 17 85t36 98q18 0 57 -24.5t60 -24.5q14 0 28 8q158 133 203 333.5t45 493.5v154q0 63 -17.5 192t-17.5 172q43 6 107 6q84 0 145.5 -4t114.5 -10q0 -2 -11.5 -74.5t-11.5 -97.5q0 -172 -12 -502.5t-12 -386.5q-31 -164 -181.5 -275.5t-328.5 -142.5 q-47 -4 -82 -7t-55 -3q-51 0 -84 10zM131 1488v23q33 45 176.5 139t171.5 94q29 0 171.5 -92t177.5 -141v-23q-66 -27 -132 -53q-39 29 -96 61.5t-121 59.5q-72 -33 -121 -59.5t-96 -61.5q-31 6 -77 28.5t-54 24.5z" />
<glyph unicode="&#x135;" horiz-adv-x="1118" d="M113 -375q18 27 34.5 43.5t77.5 71.5q14 0 39 -18.5t41 -10.5q100 135 134 305t34 400q0 49 -2 150.5t-2 150.5q-12 20 -16 28q-27 0 -76 -6t-74 -6q-12 0 -41 4q18 102 21.5 117.5t21.5 65.5q0 8 8.5 6t12.5 4q115 0 252 4t229 8l4 -12q-39 -119 -53.5 -245t-14.5 -286 q0 -76 4.5 -252t4.5 -190q-12 -123 -117 -219t-240 -150q-53 -12 -108 -12q-49 0 -93 11.5t-81 37.5zM178 1128v23q35 47 176.5 140t171.5 93q27 0 171.5 -93t176.5 -140v-23q-8 -2 -54 -24.5t-77 -28.5q-82 61 -217 121q-68 -31 -123 -60.5t-94 -60.5q-66 27 -131 53z" />
<glyph unicode="&#x136;" d="M12 1298l6 2h326l8 -6q-35 -242 -35 -516q6 -18 27 -4q143 121 319.5 288t249.5 236h310v-8q-307 -266 -627 -569q-12 -14 10 -51q92 -109 190.5 -218.5t190.5 -208t230 -241.5q-39 0 -119 -2t-123 -2q-80 0 -144 8q-94 109 -179 206t-152.5 170t-161.5 161q-6 -2 -11 -4 t-5 -9q0 -80 15 -266t15 -258q-4 -2 -6 -4t-2 -4q-53 0 -157.5 -4t-151.5 -4l-10 18q0 156 7 430.5t7 352.5q0 168 -5 268t-22 239zM283 -285q10 14 22 39t19 33q78 -59 178 -59q113 0 112 71q0 29 -15 41.5t-58 12.5q-39 0 -67 -2.5t-64 -14.5q18 29 36 64v2l117 30v-6 q23 6 35 8.5t29 2.5q78 0 122 -31t44 -86q0 -74 -74 -124t-189 -50q-111 0 -247 69z" />
<glyph unicode="&#x137;" horiz-adv-x="1118" d="M82 -4q25 254 34 520t9 590q0 41 -9.5 78t-29.5 96q25 12 64 12q31 -2 45 -2q8 0 24 4q68 0 130.5 11.5t107.5 19.5q4 -8 0 -41q0 -133 -31 -372.5t-31 -362.5q2 -8 11.5 -8t19.5 2q174 127 252 194.5t149 145.5q57 0 174 6t175 6q-92 -70 -186.5 -140.5t-186.5 -146 t-164 -147.5v-12q188 -197 276.5 -282t204.5 -165q-88 -18 -135 -26.5t-100 -8.5q-55 0 -91 9.5t-75 33.5q-154 143 -305 289q-4 0 -25 -20q0 -47 12.5 -143.5t12.5 -143.5q-4 -6 -8.5 -8t-6.5 -2q-55 6 -156.5 10t-160.5 4zM252 -313q10 14 22.5 38.5t18.5 32.5 q78 -59 178 -59q113 0 113 72q0 29 -15.5 41t-58.5 12q-39 0 -66.5 -2t-64.5 -15q18 29 37 64v2l116 31v-6q23 6 35.5 8t28.5 2q78 0 122 -31t44 -86q0 -74 -74 -124t-188 -50q-111 0 -248 70z" />
<glyph unicode="&#x138;" horiz-adv-x="1136" d="M82 -4q25 254 34 520t9 590q0 41 -9.5 78t-29.5 96q25 12 64 12q31 -2 45 -2q8 0 24 4q68 0 130.5 11.5t107.5 19.5q4 -8 0 -41q0 -133 -31 -372.5t-31 -362.5q2 -8 11.5 -8t19.5 2q174 127 252 194.5t149 145.5q57 0 174 6t175 6q-92 -70 -186.5 -140.5t-186.5 -146 t-164 -147.5v-12q188 -197 276.5 -282t204.5 -165q-88 -18 -135 -26.5t-100 -8.5q-55 0 -91 9.5t-75 33.5q-154 143 -305 289q-4 0 -25 -20q0 -47 12.5 -143.5t12.5 -143.5q-4 -6 -8.5 -8t-6.5 -2q-55 6 -156.5 10t-160.5 4z" />
<glyph unicode="&#x139;" horiz-adv-x="1019" d="M94 1280l8 2h96.5t108.5 2q84 0 115 -2q25 -8 49 -14q-25 -113 -36 -253.5t-11 -273.5q0 -88 4 -291.5t4 -216.5q6 -29 16.5 -47t30.5 -26q127 0 236.5 14t265.5 43q8 -14 0 -22l-80 -187q-14 -14 -16 -14q-172 0 -446.5 5t-311.5 5l-6 8q10 92 14 197.5t4 210.5 q0 170 -6 426t-6 258q-4 33 -11 71.5t-22 104.5zM375 1867q-4 4 0 13q39 55 142.5 124.5t197.5 121.5q53 -16 91 -38t53.5 -37.5t15.5 -39.5q0 -17 -2 -23q-143 -57 -221 -93t-146 -87q-29 6 -74 30.5t-57 28.5z" />
<glyph unicode="&#x13a;" horiz-adv-x="737" d="M72 -39q33 188 50 449.5t17 740.5q-10 74 -20 149q2 4 9 4.5t9 6.5h82h31q109 0 205 12q23 8 26.5 -6t3.5 -35q-35 -283 -55 -522.5t-20 -478.5q6 -47 10 -77t35 -36q53 0 104 5t125 15q-8 -45 -24.5 -90t-30.5 -86q-37 -18 -78 -23t-72 -5q-90 0 -174 26 q-113 -29 -223 -59l-5 5zM129 1501q-4 4 0 13q39 55 142.5 124.5t197.5 121.5q53 -16 91 -38t53.5 -37.5t15.5 -39.5q0 -17 -2 -23q-143 -57 -221 -93t-146 -87q-29 6 -74 30.5t-57 28.5z" />
<glyph unicode="&#x13b;" horiz-adv-x="960" d="M94 1280l8 2h96.5t108.5 2q84 0 115 -2q25 -8 49 -14q-25 -113 -36 -253.5t-11 -273.5q0 -88 4 -291.5t4 -216.5q6 -29 16.5 -47t30.5 -26q127 0 236.5 14t265.5 43q8 -14 0 -22l-80 -187q-14 -14 -16 -14q-172 0 -446.5 5t-311.5 5l-6 8q10 92 14 197.5t4 210.5 q0 170 -6 426t-6 258q-4 33 -11 71.5t-22 104.5zM252 -313q10 14 22.5 38.5t18.5 32.5q78 -59 178 -59q113 0 113 72q0 29 -15.5 41t-58.5 12q-39 0 -66.5 -2t-64.5 -15q18 29 37 64v2l116 31v-6q23 6 35.5 8t28.5 2q78 0 122 -31t44 -86q0 -74 -74 -124t-188 -50 q-111 0 -248 70z" />
<glyph unicode="&#x13c;" horiz-adv-x="714" d="M72 -39q33 188 50 449.5t17 740.5q-10 74 -20 149q2 4 9 4.5t9 6.5h82h31q109 0 205 12q23 8 26.5 -6t3.5 -35q-35 -283 -55 -522.5t-20 -478.5q6 -47 10 -77t35 -36q53 0 104 5t125 15q-8 -45 -24.5 -90t-30.5 -86q-37 -18 -78 -23t-72 -5q-90 0 -174 26 q-113 -29 -223 -59l-5 5zM102 -313q10 14 22.5 38.5t18.5 32.5q78 -59 179 -59q113 0 112 72q0 29 -15.5 41t-58.5 12q-39 0 -66.5 -2t-64.5 -15q18 29 37 64v2l117 31v-6q23 6 35 8t28 2q78 0 122 -31t44 -86q0 -74 -73.5 -124t-188.5 -50q-111 0 -248 70z" />
<glyph unicode="&#x13d;" horiz-adv-x="1064" d="M94 1280l8 2h96.5t108.5 2q84 0 115 -2q25 -8 49 -14q-25 -113 -36 -253.5t-11 -273.5q0 -88 4 -291.5t4 -216.5q6 -29 16.5 -47t30.5 -26q127 0 236.5 14t265.5 43q8 -14 0 -22l-80 -187q-14 -14 -16 -14q-172 0 -446.5 5t-311.5 5l-6 8q10 92 14 197.5t4 210.5 q0 170 -6 426t-6 258q-4 33 -11 71.5t-22 104.5zM508 995v9q49 66 82 112.5t33 95.5q0 16 -7 35q-14 23 -53 73t-55 77h8h213q100 -53 100 -164q0 -29 -4 -45q-12 -55 -47 -102.5t-88 -90.5q-14 -2 -32.5 -3t-28.5 -1q-16 0 -55 2t-66 2z" />
<glyph unicode="&#x13e;" horiz-adv-x="923" d="M18 -70q33 188 50.5 449.5t17.5 740.5q-10 74 -20 150q2 4 9 4t9 6h82h31q109 0 204 12q23 8 27 -6t4 -35q-35 -283 -55.5 -522.5t-20.5 -478.5q6 -47 10.5 -77t34.5 -36q53 0 104.5 5.5t125.5 15.5q-8 -45 -24.5 -90t-31.5 -86q-37 -18 -77.5 -23.5t-71.5 -5.5 q-90 0 -174 27q-113 -29 -223 -60q-2 2 -5.5 5t-5.5 5zM508 995v9q49 66 82 112.5t33 95.5q0 16 -7 35q-14 23 -53 73t-55 77h8h213q100 -53 100 -164q0 -29 -4 -45q-12 -55 -47 -102.5t-88 -90.5q-14 -2 -32.5 -3t-28.5 -1q-16 0 -55 2t-66 2z" />
<glyph unicode="&#x13f;" horiz-adv-x="1019" d="M94 1280l8 2h96.5t108.5 2q84 0 115 -2q25 -8 49 -14q-25 -113 -36 -253.5t-11 -273.5q0 -88 4 -291.5t4 -216.5q6 -29 16.5 -47t30.5 -26q127 0 236.5 14t265.5 43q8 -14 0 -22l-80 -187q-14 -14 -16 -14q-172 0 -446.5 5t-311.5 5l-6 8q10 92 14 197.5t4 210.5 q0 170 -6 426t-6 258q-4 33 -11 71.5t-22 104.5zM550 525q0 14 15.5 28t19.5 22q43 49 58 64.5t38 35.5q59 -26 101 -47t61.5 -30.5t31 -13t10.5 -14.5q-7 -8 -43 -57t-64 -71q-79 28 -124.5 42.5t-103.5 40.5z" />
<glyph unicode="&#x140;" horiz-adv-x="1073" d="M72 -39q33 188 50 449.5t17 740.5q-10 74 -20 149q2 4 9 4.5t9 6.5h82h31q109 0 205 12q23 8 26.5 -6t3.5 -35q-35 -283 -55 -522.5t-20 -478.5q6 -47 10 -77t35 -36q53 0 104 5t125 15q-8 -45 -24.5 -90t-30.5 -86q-37 -18 -78 -23t-72 -5q-90 0 -174 26 q-113 -29 -223 -59l-5 5zM684 525q0 14 15.5 28t19.5 22q43 49 58 64.5t38 35.5q59 -26 101 -47t61.5 -30.5t31 -13t10.5 -14.5q-7 -8 -43 -57t-64 -71q-79 28 -124.5 42.5t-103.5 40.5z" />
<glyph unicode="&#x141;" horiz-adv-x="1019" d="M33 581v115h575v-115h-575zM94 1280l8 2h96.5t108.5 2q84 0 115 -2q25 -8 49 -14q-25 -113 -36 -253.5t-11 -273.5q0 -88 4 -291.5t4 -216.5q6 -29 16.5 -47t30.5 -26q127 0 236.5 14t265.5 43q8 -14 0 -22l-80 -187q-14 -14 -16 -14q-172 0 -446.5 5t-311.5 5l-6 8 q10 92 14 197.5t4 210.5q0 170 -6 426t-6 258q-4 33 -11 71.5t-22 104.5z" />
<glyph unicode="&#x142;" horiz-adv-x="737" d="M29 581v115h575v-115h-575zM72 -39q33 188 50 449.5t17 740.5q-10 74 -20 149q2 4 9 4.5t9 6.5h82h31q109 0 205 12q23 8 26.5 -6t3.5 -35q-35 -283 -55 -522.5t-20 -478.5q6 -47 10 -77t35 -36q53 0 104 5t125 15q-8 -45 -24.5 -90t-30.5 -86q-37 -18 -78 -23t-72 -5 q-90 0 -174 26q-113 -29 -223 -59l-5 5z" />
<glyph unicode="&#x143;" horiz-adv-x="1587" d="M29 1292h325q6 2 13.5 2h9.5q31 0 53.5 -13t34.5 -31.5t24 -35.5l703 -862v643q0 53 -4 88t-8 69t-10.5 65.5t-16.5 74.5h397q-49 -43 -70.5 -95t-27.5 -92t-6 -81v-731q0 -45 1 -85t17 -89q29 -74 90 -127l-426 2l-733 880v-679q0 -18 1 -38t16 -63l20 -102h-371 q29 41 43.5 72.5t25.5 71.5t13 71t2 86v663v27q0 63 -3 88t-18 70t-24.5 60.5t-70.5 90.5zM626 1480q-4 4 0 13q39 55 142.5 124.5t197.5 121.5q53 -16 91 -38t53.5 -37.5t15.5 -39.5q0 -17 -2 -23q-143 -57 -221 -93t-146 -87q-29 6 -74 30.5t-57 28.5z" />
<glyph unicode="&#x144;" horiz-adv-x="1359" d="M43 840v12q90 0 175 8t161 29q25 8 31 -10q4 -29 6 -39.5t5 -19.5t17 -15q88 27 162 40t162 13q45 10 99 18.5t102 8.5q55 0 98 -10.5t94 -48.5t79 -106.5t28 -154.5v-33q-4 -25 -10.5 -73.5t-48.5 -132.5t-107 -160q0 -25 12 -25q68 16 109 26t92 26q-18 -39 -48 -91.5 t-57 -99.5l-12 -12q-72 6 -167 9t-210 3h-225q90 82 156.5 144.5t113.5 129.5q37 63 62.5 131t25.5 130q0 37 -11 71.5t-35.5 65.5t-62.5 48t-89 23q-115 -18 -206 -114t-118 -174t-33 -126t-6 -89q0 -51 5 -136.5t5 -97.5l-2 -6h-319l-6 4q33 145 54 260t21 219 q0 111 -22.5 195t-79.5 160zM518 993q-4 4 0 13q39 55 142.5 124.5t197.5 121.5q53 -16 91 -38t53.5 -37.5t15.5 -39.5q0 -17 -2 -23q-143 -57 -221 -93t-146 -87q-29 6 -74 30.5t-57 28.5z" />
<glyph unicode="&#x145;" horiz-adv-x="1560" d="M29 1292h325q6 2 13.5 2h9.5q31 0 53.5 -13t34.5 -31.5t24 -35.5l703 -862v643q0 53 -4 88t-8 69t-10.5 65.5t-16.5 74.5h397q-49 -43 -70.5 -95t-27.5 -92t-6 -81v-731q0 -45 1 -85t17 -89q29 -74 90 -127l-426 2l-733 880v-679q0 -18 1 -38t16 -63l20 -102h-371 q29 41 43.5 72.5t25.5 71.5t13 71t2 86v663v27q0 63 -3 88t-18 70t-24.5 60.5t-70.5 90.5zM477 -268q10 14 22.5 38.5t18.5 32.5q78 -59 178 -59q113 0 113 72q0 29 -15.5 41t-58.5 12q-39 0 -66.5 -2t-64.5 -14q18 29 37 63v2l117 31v-6q23 6 35 8t28 2q78 0 122 -31 t44 -86q0 -74 -73.5 -124t-188.5 -50q-111 0 -248 70z" />
<glyph unicode="&#x146;" horiz-adv-x="1329" d="M43 840v12q90 0 175 8t161 29q25 8 31 -10q4 -29 6 -39.5t5 -19.5t17 -15q88 27 162 40t162 13q45 10 99 18.5t102 8.5q55 0 98 -10.5t94 -48.5t79 -106.5t28 -154.5v-33q-4 -25 -10.5 -73.5t-48.5 -132.5t-107 -160q0 -25 12 -25q68 16 109 26t92 26q-18 -39 -48 -91.5 t-57 -99.5l-12 -12q-72 6 -167 9t-210 3h-225q90 82 156.5 144.5t113.5 129.5q37 63 62.5 131t25.5 130q0 37 -11 71.5t-35.5 65.5t-62.5 48t-89 23q-115 -18 -206 -114t-118 -174t-33 -126t-6 -89q0 -51 5 -136.5t5 -97.5l-2 -6h-319l-6 4q33 145 54 260t21 219 q0 111 -22.5 195t-79.5 160zM252 -313q10 14 22.5 38.5t18.5 32.5q78 -59 178 -59q113 0 113 72q0 29 -15.5 41t-58.5 12q-39 0 -66.5 -2t-64.5 -15q18 29 37 64v2l116 31v-6q23 6 35.5 8t28.5 2q78 0 122 -31t44 -86q0 -74 -74 -124t-188 -50q-111 0 -248 70z" />
<glyph unicode="&#x147;" horiz-adv-x="1587" d="M29 1292h325q6 2 13.5 2h9.5q31 0 53.5 -13t34.5 -31.5t24 -35.5l703 -862v643q0 53 -4 88t-8 69t-10.5 65.5t-16.5 74.5h397q-49 -43 -70.5 -95t-27.5 -92t-6 -81v-731q0 -45 1 -85t17 -89q29 -74 90 -127l-426 2l-733 880v-679q0 -18 1 -38t16 -63l20 -102h-371 q29 41 43.5 72.5t25.5 71.5t13 71t2 86v663v27q0 63 -3 88t-18 70t-24.5 60.5t-70.5 90.5zM442 1681v23q66 27 131 53q39 -31 94.5 -60.5t122.5 -60.5q135 59 217 121q31 -6 77 -28.5t55 -24.5v-23q-33 -47 -177.5 -140t-171.5 -93q-31 0 -172 93t-176 140z" />
<glyph unicode="&#x148;" horiz-adv-x="1359" d="M43 840v12q90 0 175 8t161 29q25 8 31 -10q4 -29 6 -39.5t5 -19.5t17 -15q88 27 162 40t162 13q45 10 99 18.5t102 8.5q55 0 98 -10.5t94 -48.5t79 -106.5t28 -154.5v-33q-4 -25 -10.5 -73.5t-48.5 -132.5t-107 -160q0 -25 12 -25q68 16 109 26t92 26q-18 -39 -48 -91.5 t-57 -99.5l-12 -12q-72 6 -167 9t-210 3h-225q90 82 156.5 144.5t113.5 129.5q37 63 62.5 131t25.5 130q0 37 -11 71.5t-35.5 65.5t-62.5 48t-89 23q-115 -18 -206 -114t-118 -174t-33 -126t-6 -89q0 -51 5 -136.5t5 -97.5l-2 -6h-319l-6 4q33 145 54 260t21 219 q0 111 -22.5 195t-79.5 160zM327 1241v23q66 27 131 53q39 -31 94.5 -60.5t122.5 -60.5q135 59 217 121q31 -6 77 -28.5t55 -24.5v-23q-33 -47 -177.5 -140t-171.5 -93q-31 0 -172 93t-176 140z" />
<glyph unicode="&#x149;" horiz-adv-x="1652" d="M10 877v8q49 66 82 112.5t33 96.5q0 16 -6 34q-14 23 -53 73t-56 77h8h213q100 -53 101 -164q0 -29 -4 -45q-12 -55 -47 -102t-88 -90q-14 -2 -33 -3.5t-29 -1.5q-16 0 -55 2.5t-66 2.5zM326 840v12q90 0 175 8t161 29q25 8 30 -10q4 -29 6 -39.5t5.5 -19.5t17.5 -15 q88 27 161.5 40t161.5 13q45 10 99.5 18.5t101.5 8.5q55 0 98 -10.5t94.5 -48.5t79 -106.5t27.5 -154.5v-33q-4 -25 -10 -73.5t-48 -132.5t-108 -160q0 -25 13 -25q68 16 108.5 26t91.5 26q-18 -39 -48 -91.5t-56 -99.5l-12 -12q-72 6 -167.5 9t-209.5 3h-226 q90 82 157 144.5t114 129.5q37 63 62.5 131t25.5 130q0 37 -11.5 71.5t-36 65.5t-62.5 48t-89 23q-115 -18 -206 -114t-117.5 -174t-32.5 -126t-6 -89q0 -51 5 -136.5t5 -97.5l-2 -6h-320l-6 4q33 145 54.5 260t21.5 219q0 111 -22.5 195t-79.5 160z" />
<glyph unicode="&#x14c;" horiz-adv-x="1771" d="M74 580q0 123 48 261t203.5 265t333.5 154q123 12 179.5 20t102.5 22.5t84 18.5t75 4q164 0 304 -83t212 -220q37 -68 55.5 -151t18.5 -164q0 -115 -33 -223.5t-121 -229.5t-261 -193.5t-382 -72.5q-117 -27 -227 -27q-129 0 -239 39t-187.5 127t-121.5 207t-44 246z M391 598q0 -104 48 -222t171 -197t271 -79q250 35 368.5 206t118.5 358q0 153 -70 266q-68 115 -143.5 161t-154 65.5t-123.5 19.5q-78 0 -146.5 -35t-152.5 -103q-88 -88 -137.5 -202.5t-49.5 -237.5zM530 1487q-2 2 0 14q47 104 94 211q47 -10 112.5 -14.5t139.5 -4.5 q96 0 196.5 5.5t157.5 9.5v-19l-84 -202q-8 0 -12 -9q-66 10 -118 12.5t-140 2.5q-84 0 -214 -3t-132 -3z" />
<glyph unicode="&#x14d;" horiz-adv-x="1269" d="M70 381q0 137 71.5 242.5t185 156.5t269.5 76q109 41 223 41q68 0 123 -15.5t102 -52.5q27 -12 39.5 -17t63.5 -101q53 -96 53 -226q0 -147 -78 -254.5t-186.5 -147.5t-252.5 -73t-160.5 -35t-51.5 -2q-104 0 -190 41t-140 127q-72 102 -71 240zM285 996q-2 2 0 14 q47 104 94 211q47 -10 112.5 -14.5t139.5 -4.5q96 0 196.5 5.5t157.5 9.5v-19l-84 -202q-8 0 -12 -9q-66 10 -118 12.5t-140 2.5q-84 0 -214 -3t-132 -3zM350 418q0 -74 34 -141.5t104.5 -113.5t154.5 -46q49 -6 82 16.5t94 79.5q94 100 94 248q1 74 -26 129 q-37 84 -107.5 122t-158.5 38q-70 -20 -121 -50t-100.5 -99t-49.5 -183z" />
<glyph unicode="&#x14e;" horiz-adv-x="1771" d="M74 580q0 123 48 261t203.5 265t333.5 154q123 12 179.5 20t102.5 22.5t84 18.5t75 4q164 0 304 -83t212 -220q37 -68 55.5 -151t18.5 -164q0 -115 -33 -223.5t-121 -229.5t-261 -193.5t-382 -72.5q-117 -27 -227 -27q-129 0 -239 39t-187.5 127t-121.5 207t-44 246z M391 598q0 -104 48 -222t171 -197t271 -79q250 35 368.5 206t118.5 358q0 153 -70 266q-68 115 -143.5 161t-154 65.5t-123.5 19.5q-78 0 -146.5 -35t-152.5 -103q-88 -88 -137.5 -202.5t-49.5 -237.5zM534 1663v23q66 27 131 53q47 -39 102.5 -90t114.5 -72 q72 20 127.5 75.5t89.5 86.5q31 -6 77 -28.5t55 -24.5v-23q-57 -80 -150.5 -156.5t-198.5 -76.5q-82 0 -173 59.5t-175 173.5z" />
<glyph unicode="&#x14f;" horiz-adv-x="1269" d="M70 381q0 137 71.5 242.5t185 156.5t269.5 76q109 41 223 41q68 0 123 -15.5t102 -52.5q27 -12 39.5 -17t63.5 -101q53 -96 53 -226q0 -147 -78 -254.5t-186.5 -147.5t-252.5 -73t-160.5 -35t-51.5 -2q-104 0 -190 41t-140 127q-72 102 -71 240zM287 1241v23 q66 27 131 53q47 -39 102.5 -90t114.5 -72q72 20 127.5 75.5t89.5 86.5q31 -6 77 -28.5t55 -24.5v-23q-57 -80 -150.5 -156.5t-198.5 -76.5q-82 0 -173 59.5t-175 173.5zM350 418q0 -74 34 -141.5t104.5 -113.5t154.5 -46q49 -6 82 16.5t94 79.5q94 100 94 248q1 74 -26 129 q-37 84 -107.5 122t-158.5 38q-70 -20 -121 -50t-100.5 -99t-49.5 -183z" />
<glyph unicode="&#x150;" horiz-adv-x="1771" d="M74 580q0 123 48 261t203.5 265t333.5 154q123 12 179.5 20t102.5 22.5t84 18.5t75 4q164 0 304 -83t212 -220q37 -68 55.5 -151t18.5 -164q0 -115 -33 -223.5t-121 -229.5t-261 -193.5t-382 -72.5q-117 -27 -227 -27q-129 0 -239 39t-187.5 127t-121.5 207t-44 246z M391 598q0 -104 48 -222t171 -197t271 -79q250 35 368.5 206t118.5 358q0 153 -70 266q-68 115 -143.5 161t-154 65.5t-123.5 19.5q-78 0 -146.5 -35t-152.5 -103q-88 -88 -137.5 -202.5t-49.5 -237.5zM510 1489q147 223 172 262t60 100q39 -35 64.5 -51.5t115.5 -71.5 l-18 -26l-39 -64q-176 -176 -203 -227q-74 59 -123 65zM840 1487q147 223 172 262t59 100q39 -35 65 -51.5t116 -71.5l-19 -26l-39 -64q-176 -176 -202 -227q-74 59 -123 65z" />
<glyph unicode="&#x151;" horiz-adv-x="1269" d="M70 381q0 137 71.5 242.5t185 156.5t269.5 76q109 41 223 41q68 0 123 -15.5t102 -52.5q27 -12 39.5 -17t63.5 -101q53 -96 53 -226q0 -147 -78 -254.5t-186.5 -147.5t-252.5 -73t-160.5 -35t-51.5 -2q-104 0 -190 41t-140 127q-72 102 -71 240zM264 1069 q147 223 172 262t60 100q39 -35 64.5 -51.5t115.5 -71.5l-18 -26l-39 -64q-176 -176 -203 -227q-74 59 -123 65zM350 418q0 -74 34 -141.5t104.5 -113.5t154.5 -46q49 -6 82 16.5t94 79.5q94 100 94 248q1 74 -26 129q-37 84 -107.5 122t-158.5 38q-70 -20 -121 -50 t-100.5 -99t-49.5 -183zM594 1067q147 223 172 262t59 100q39 -35 65 -51.5t116 -71.5l-19 -26l-39 -64q-176 -176 -202 -227q-74 59 -123 65z" />
<glyph unicode="&#x152;" horiz-adv-x="2048" d="M74 580q0 123 48 261t203.5 265t333.5 154q123 12 179.5 20t114 25.5t106.5 17.5q55 0 100 -23q76 0 229.5 -6t233.5 -6q90 0 158.5 5t142.5 20q20 2 27 2q8 0 8 -8t-8 -37q-12 -31 -30.5 -100.5t-23.5 -82.5q-8 -8 -20 -8q-80 0 -257 4t-194 4q-23 -18 -22 -24 q-4 -27 -6 -64.5t-2 -74.5q0 -31 2 -92.5t2 -90.5q0 -6 16 -12q49 -8 91 -10t102 -2q86 0 154.5 6t160.5 18q0 -45 -7 -113.5t-11 -103.5q-14 -8 -23 -8q-57 0 -189 10.5t-180 10.5q-25 0 -63.5 -3.5t-40.5 -3.5q-16 0 -16 -16q-2 -16 -2 -35.5v-29.5q0 -35 4 -107t4 -109 q0 -41 28 -40q92 -12 195 -13q76 0 147.5 8.5t131.5 28.5q16 0 16 -22v-23v-192q-74 0 -229.5 6t-237.5 6l-369 -4l-6 8v10q-31 -6 -82 -12t-100 -6q-117 -27 -227 -27q-129 0 -239 39t-187.5 127t-121.5 207t-44 246zM391 598q0 -104 48 -222t171 -197t271 -79 q111 16 150.5 90t74.5 138q0 109 2 331.5t2 337.5q0 18 -4 55.5t-4 55.5q-25 27 -72 39t-77.5 20.5t-75.5 8.5q-78 0 -146.5 -35t-152.5 -103q-88 -88 -137.5 -202.5t-49.5 -237.5z" />
<glyph unicode="&#x153;" horiz-adv-x="2095" d="M70 381q0 137 71.5 242.5t185 156.5t269.5 76q109 41 223 41q68 0 123 -15.5t83 -37t45 -27.5t38 -39q135 100 289 101q61 6 128.5 12t100.5 6q74 0 127 -11.5t92 -37t66 -39.5q27 -23 58.5 -83t31.5 -140q0 -92 -41 -164l-18 -8q-76 10 -138.5 12t-165.5 2 q-152 0 -241.5 -2t-167.5 -4q-12 -12 -12 -41q0 -16 2 -36.5t2 -22.5q0 -49 29.5 -95.5t96 -82t164.5 -35.5q70 0 125 26q70 23 147 55.5t218 112.5v-18l-152 -297l-16 -11q-63 0 -196.5 10.5t-176.5 10.5q-25 0 -44 -1t-87 -9q-147 0 -219 28.5t-121 85.5l-6 7 q-84 -49 -206 -78t-180 -41.5t-74.5 -14.5t-51.5 -2q-104 0 -190 41t-140 127q-72 102 -71 240zM350 418q0 -74 34 -141.5t104.5 -113.5t154.5 -46q49 -6 82 16.5t94 79.5q66 68 84 164q0 18 5 51t5 41q0 33 -5 58.5t-31.5 86t-97 98.5t-158.5 38q-70 -20 -121 -50 t-100.5 -99t-49.5 -183zM1249 596q0 -8 8 -16q31 -6 65 -8.5t79 -2.5q63 0 161.5 5.5t110.5 5.5l19 8q6 16 3 32.5t-10.5 34t-57.5 61.5t-88 51t-60 7q-57 0 -105.5 -32.5t-97.5 -90.5q-12 -18 -19.5 -31.5t-7.5 -23.5z" />
<glyph unicode="&#x154;" horiz-adv-x="1361" d="M66 1282v14q90 0 182 -2t186 -4q125 0 195.5 5t167.5 24q68 0 160 -20.5t108 -33t31.5 -30.5t27.5 -27q29 -37 44.5 -86t15.5 -108q0 -76 -27 -131q-29 -72 -95.5 -136.5t-150.5 -117.5q2 -14 38 -47t154 -217.5t150 -219.5q20 -16 60.5 -41.5t109.5 -64.5v-12 q-37 -14 -90 -21.5t-155 -7.5h-103q-123 16 -199.5 168.5t-115.5 193.5q-45 84 -116 141.5t-157 57.5q-18 0 -31.5 -3t-21.5 -11t-8 -35q0 -43 -2 -51q0 -113 8 -228.5t27 -228.5l-8 -8h-347l-10 8q27 109 38 233.5t11 266.5q0 80 -4 267t-4 200q0 106 -12 179t-57 134z M422 887q0 -33 4 -114t4 -85l4 -16q41 -6 76 -6q88 0 164 33.5t131 103.5q55 86 55 182q1 51 -22 100q-25 47 -78 76t-115 29q-61 0 -117.5 -38t-81 -107.5t-24.5 -157.5zM579 1523q-4 4 0 13q39 55 142.5 124.5t197.5 121.5q53 -16 91 -38t53.5 -37.5t15.5 -39.5 q0 -17 -2 -23q-143 -57 -221 -93t-146 -87q-29 6 -74 30.5t-57 28.5z" />
<glyph unicode="&#x155;" horiz-adv-x="1394" d="M43 821l8 4q88 0 193.5 14.5t204.5 28.5q10 -8 18 -38.5t22 -38.5q63 27 240.5 57.5t198 35.5t35 5h22.5q66 0 120 -19.5t106.5 -80t52.5 -166.5q0 -35 -10.5 -86.5t-84 -128t-170.5 -129.5v-13q80 -63 173.5 -123.5t177.5 -103.5q-66 -20 -136.5 -32.5t-142.5 -12.5 q-88 -1 -160 26q-156 84 -239.5 119t-163.5 54q-23 -12 -23 -50q0 -10 2 -30.5t2 -28.5q0 -6 4.5 -24.5t4.5 -30.5q0 -18 -19 -25h-250q-6 2 -8 4q0 127 5 325.5t5 233.5q0 74 -52 135.5t-136 118.5zM494 334q0 -27 14 -37q76 0 144.5 20.5t133 60.5t107.5 102.5t43 129.5 q0 20 -6 43q-12 55 -31.5 68.5t-122.5 23.5q-106 -41 -183 -141t-87 -166.5t-11 -78t-1 -25.5zM530 1046q-4 4 0 13q39 55 142.5 124.5t197.5 121.5q53 -16 91 -38t53.5 -37.5t15.5 -39.5q0 -17 -2 -23q-143 -57 -221 -93t-146 -87q-29 6 -74 30.5t-57 28.5z" />
<glyph unicode="&#x156;" horiz-adv-x="1361" d="M66 1282v14q90 0 182 -2t186 -4q125 0 195.5 5t167.5 24q68 0 160 -20.5t108 -33t31.5 -30.5t27.5 -27q29 -37 44.5 -86t15.5 -108q0 -76 -27 -131q-29 -72 -95.5 -136.5t-150.5 -117.5q2 -14 38 -47t154 -217.5t150 -219.5q20 -16 60.5 -41.5t109.5 -64.5v-12 q-37 -14 -90 -21.5t-155 -7.5h-103q-123 16 -199.5 168.5t-115.5 193.5q-45 84 -116 141.5t-157 57.5q-18 0 -31.5 -3t-21.5 -11t-8 -35q0 -43 -2 -51q0 -113 8 -228.5t27 -228.5l-8 -8h-347l-10 8q27 109 38 233.5t11 266.5q0 80 -4 267t-4 200q0 106 -12 179t-57 134z M422 887q0 -33 4 -114t4 -85l4 -16q41 -6 76 -6q88 0 164 33.5t131 103.5q55 86 55 182q1 51 -22 100q-25 47 -78 76t-115 29q-61 0 -117.5 -38t-81 -107.5t-24.5 -157.5zM438 -291q10 14 22.5 39t18.5 33q78 -59 178 -60q113 0 113 72q0 29 -15.5 41t-58.5 12 q-39 0 -66.5 -2t-64.5 -14q18 29 37 64v2l117 30v-6q23 6 35 8t28 2q78 0 122 -30.5t44 -85.5q0 -74 -73.5 -124t-188.5 -50q-111 0 -248 69z" />
<glyph unicode="&#x157;" horiz-adv-x="1394" d="M43 821l8 4q88 0 193.5 14.5t204.5 28.5q10 -8 18 -38.5t22 -38.5q63 27 240.5 57.5t198 35.5t35 5h22.5q66 0 120 -19.5t106.5 -80t52.5 -166.5q0 -35 -10.5 -86.5t-84 -128t-170.5 -129.5v-13q80 -63 173.5 -123.5t177.5 -103.5q-66 -20 -136.5 -32.5t-142.5 -12.5 q-88 -1 -160 26q-156 84 -239.5 119t-163.5 54q-23 -12 -23 -50q0 -10 2 -30.5t2 -28.5q0 -6 4.5 -24.5t4.5 -30.5q0 -18 -19 -25h-250q-6 2 -8 4q0 127 5 325.5t5 233.5q0 74 -52 135.5t-136 118.5zM385 -291q10 14 22.5 39t18.5 33q78 -59 178 -60q113 0 113 72 q0 29 -15.5 41t-58.5 12q-39 0 -66.5 -2t-64.5 -14q18 29 37 64v2l117 30v-6q23 6 35 8t28 2q78 0 122 -30.5t44 -85.5q0 -74 -73.5 -124t-188.5 -50q-111 0 -248 69zM494 334q0 -27 14 -37q76 0 144.5 20.5t133 60.5t107.5 102.5t43 129.5q0 20 -6 43q-12 55 -31.5 68.5 t-122.5 23.5q-106 -41 -183 -141t-87 -166.5t-11 -78t-1 -25.5z" />
<glyph unicode="&#x158;" horiz-adv-x="1361" d="M66 1282v14q90 0 182 -2t186 -4q125 0 195.5 5t167.5 24q68 0 160 -20.5t108 -33t31.5 -30.5t27.5 -27q29 -37 44.5 -86t15.5 -108q0 -76 -27 -131q-29 -72 -95.5 -136.5t-150.5 -117.5q2 -14 38 -47t154 -217.5t150 -219.5q20 -16 60.5 -41.5t109.5 -64.5v-12 q-37 -14 -90 -21.5t-155 -7.5h-103q-123 16 -199.5 168.5t-115.5 193.5q-45 84 -116 141.5t-157 57.5q-18 0 -31.5 -3t-21.5 -11t-8 -35q0 -43 -2 -51q0 -113 8 -228.5t27 -228.5l-8 -8h-347l-10 8q27 109 38 233.5t11 266.5q0 80 -4 267t-4 200q0 106 -12 179t-57 134z M268 1698v23q66 27 131 53q39 -31 94.5 -60.5t122.5 -60.5q135 59 217 121q31 -6 77 -28.5t55 -24.5v-23q-33 -47 -177.5 -140t-171.5 -93q-31 0 -172 93t-176 140zM422 887q0 -33 4 -114t4 -85l4 -16q41 -6 76 -6q88 0 164 33.5t131 103.5q55 86 55 182q1 51 -22 100 q-25 47 -78 76t-115 29q-61 0 -117.5 -38t-81 -107.5t-24.5 -157.5z" />
<glyph unicode="&#x159;" horiz-adv-x="1394" d="M43 821l8 4q88 0 193.5 14.5t204.5 28.5q10 -8 18 -38.5t22 -38.5q63 27 240.5 57.5t198 35.5t35 5h22.5q66 0 120 -19.5t106.5 -80t52.5 -166.5q0 -35 -10.5 -86.5t-84 -128t-170.5 -129.5v-13q80 -63 173.5 -123.5t177.5 -103.5q-66 -20 -136.5 -32.5t-142.5 -12.5 q-88 -1 -160 26q-156 84 -239.5 119t-163.5 54q-23 -12 -23 -50q0 -10 2 -30.5t2 -28.5q0 -6 4.5 -24.5t4.5 -30.5q0 -18 -19 -25h-250q-6 2 -8 4q0 127 5 325.5t5 233.5q0 74 -52 135.5t-136 118.5zM348 1233v23q66 27 131 53q39 -31 94.5 -60.5t122.5 -60.5 q135 59 217 121q31 -6 77 -28.5t55 -24.5v-23q-33 -47 -177.5 -140t-171.5 -93q-31 0 -172 93t-176 140zM494 334q0 -27 14 -37q76 0 144.5 20.5t133 60.5t107.5 102.5t43 129.5q0 20 -6 43q-12 55 -31.5 68.5t-122.5 23.5q-106 -41 -183 -141t-87 -166.5t-11 -78t-1 -25.5z " />
<glyph unicode="&#x15a;" horiz-adv-x="1351" d="M68 221q0 94 51 164q119 12 199.5 20.5t144.5 24.5q-4 -29 -22.5 -74t-23.5 -65.5t-5 -40.5q0 -68 56 -113t136 -45q12 0 76.5 13.5t147.5 96.5t94.5 148.5t11.5 95.5q0 41 -15.5 75t-44 48.5t-48 16.5t-48.5 2q-37 0 -55 4q-31 0 -97.5 -2t-101.5 -2q-147 0 -244.5 31.5 t-160.5 134.5q-31 59 -31 137q0 76 29.5 150.5t91 149.5t158 106.5t211.5 31.5q37 0 79.5 -4t68.5 -7t42 -4t29 -1q45 0 90 2l90 4q78 0 133 -17.5t94 -66.5q29 -43 44.5 -89t15.5 -93q0 -14 -3.5 -32t-5.5 -28l-10 -8q-57 8 -84.5 9t-42.5 1q-111 0 -219 -32q-4 4 -5 12 t-1 14v41t2 41q0 37 -9 59.5t-34 38t-53.5 21.5t-53.5 6q-57 0 -119.5 -22.5t-113.5 -57.5q-43 -37 -67.5 -80t-24.5 -94q0 -20 2 -31q0 -23 16.5 -43t42.5 -39q45 -23 96.5 -30.5t106.5 -7.5q63 0 193.5 12t148.5 12q72 -12 130 -57t89 -113q29 -86 29 -168 q0 -233 -128 -339.5t-222.5 -135.5t-208.5 -29q-72 0 -160 11q-33 0 -111.5 -4.5t-87.5 -4.5q-96 0 -162.5 26t-96 92.5t-29.5 127.5zM514 1515q-4 4 0 13q39 55 142.5 124.5t197.5 121.5q53 -16 91 -38t53.5 -37.5t15.5 -39.5q0 -17 -2 -23q-143 -57 -221 -93t-146 -87 q-29 6 -74 30.5t-57 28.5z" />
<glyph unicode="&#x15b;" horiz-adv-x="1101" d="M55 240q0 27 6 55q10 10 13 10l274 -6q12 -8 12 -20q-4 -25 -8 -48q0 -45 27 -79q49 -43 125 -43q12 0 28.5 2t51 7t90 53t71.5 112q0 51 -22 63q-25 23 -60.5 32t-76.5 9q-25 0 -49.5 -1t-47.5 -1q-59 -6 -78.5 -7t-62.5 -1q-84 0 -147.5 23.5t-102.5 84.5 q-31 43 -30 109q0 51 38.5 128t161.5 111.5t320 34.5q72 20 145 21q90 0 166 -31t94.5 -68.5t27.5 -64.5t9 -43q0 -23 -10 -35q-63 0 -160.5 -5t-114.5 -5q-12 37 -26 60.5t-45 39.5q-47 20 -107 21q-74 0 -125 -39q-20 -18 -41.5 -40t-21.5 -48q0 -23 13.5 -42.5t37 -29.5 t57 -14t74.5 -4q43 0 131 8t129 8q109 0 164 -43t55 -168q0 -100 -63.5 -186t-157.5 -119q-37 -20 -85 -29.5t-99 -9.5h-57.5t-57.5 2q-59 0 -114 -14q-111 0 -191 24.5t-129 98.5q-31 55 -31 127zM338 1030q-4 4 0 13q39 55 142.5 124.5t197.5 121.5q53 -16 91 -38 t53.5 -37.5t15.5 -39.5q0 -17 -2 -23q-143 -57 -221 -93t-146 -87q-29 6 -74 30.5t-57 28.5z" />
<glyph unicode="&#x15c;" horiz-adv-x="1351" d="M68 221q0 94 51 164q119 12 199.5 20.5t144.5 24.5q-4 -29 -22.5 -74t-23.5 -65.5t-5 -40.5q0 -68 56 -113t136 -45q12 0 76.5 13.5t147.5 96.5t94.5 148.5t11.5 95.5q0 41 -15.5 75t-44 48.5t-48 16.5t-48.5 2q-37 0 -55 4q-31 0 -97.5 -2t-101.5 -2q-147 0 -244.5 31.5 t-160.5 134.5q-31 59 -31 137q0 76 29.5 150.5t91 149.5t158 106.5t211.5 31.5q37 0 79.5 -4t68.5 -7t42 -4t29 -1q45 0 90 2l90 4q78 0 133 -17.5t94 -66.5q29 -43 44.5 -89t15.5 -93q0 -14 -3.5 -32t-5.5 -28l-10 -8q-57 8 -84.5 9t-42.5 1q-111 0 -219 -32q-4 4 -5 12 t-1 14v41t2 41q0 37 -9 59.5t-34 38t-53.5 21.5t-53.5 6q-57 0 -119.5 -22.5t-113.5 -57.5q-43 -37 -67.5 -80t-24.5 -94q0 -20 2 -31q0 -23 16.5 -43t42.5 -39q45 -23 96.5 -30.5t106.5 -7.5q63 0 193.5 12t148.5 12q72 -12 130 -57t89 -113q29 -86 29 -168 q0 -233 -128 -339.5t-222.5 -135.5t-208.5 -29q-72 0 -160 11q-33 0 -111.5 -4.5t-87.5 -4.5q-96 0 -162.5 26t-96 92.5t-29.5 127.5zM332 1533v23q33 45 176.5 139t171.5 94q29 0 171.5 -92t177.5 -141v-23q-66 -27 -132 -53q-39 29 -96 61.5t-121 59.5q-72 -33 -121 -59.5 t-96 -61.5q-31 6 -77 28.5t-54 24.5z" />
<glyph unicode="&#x15d;" horiz-adv-x="1101" d="M55 240q0 27 6 55q10 10 13 10l274 -6q12 -8 12 -20q-4 -25 -8 -48q0 -45 27 -79q49 -43 125 -43q12 0 28.5 2t51 7t90 53t71.5 112q0 51 -22 63q-25 23 -60.5 32t-76.5 9q-25 0 -49.5 -1t-47.5 -1q-59 -6 -78.5 -7t-62.5 -1q-84 0 -147.5 23.5t-102.5 84.5 q-31 43 -30 109q0 51 38.5 128t161.5 111.5t320 34.5q72 20 145 21q90 0 166 -31t94.5 -68.5t27.5 -64.5t9 -43q0 -23 -10 -35q-63 0 -160.5 -5t-114.5 -5q-12 37 -26 60.5t-45 39.5q-47 20 -107 21q-74 0 -125 -39q-20 -18 -41.5 -40t-21.5 -48q0 -23 13.5 -42.5t37 -29.5 t57 -14t74.5 -4q43 0 131 8t129 8q109 0 164 -43t55 -168q0 -100 -63.5 -186t-157.5 -119q-37 -20 -85 -29.5t-99 -9.5h-57.5t-57.5 2q-59 0 -114 -14q-111 0 -191 24.5t-129 98.5q-31 55 -31 127zM223 1052v23q33 45 176.5 139t171.5 94q29 0 171.5 -92t177.5 -141v-23 q-66 -27 -132 -53q-39 29 -96 61.5t-121 59.5q-72 -33 -121 -59.5t-96 -61.5q-31 6 -77 28.5t-54 24.5z" />
<glyph unicode="&#x15e;" horiz-adv-x="1351" d="M68 221q0 94 51 164q119 12 199.5 20.5t144.5 24.5q-4 -29 -22.5 -74t-23.5 -65.5t-5 -40.5q0 -68 56 -113t136 -45q12 0 76.5 13.5t147.5 96.5t94.5 148.5t11.5 95.5q0 41 -15.5 75t-44 48.5t-48 16.5t-48.5 2q-37 0 -55 4q-31 0 -97.5 -2t-101.5 -2q-147 0 -244.5 31.5 t-160.5 134.5q-31 59 -31 137q0 76 29.5 150.5t91 149.5t158 106.5t211.5 31.5q37 0 79.5 -4t68.5 -7t42 -4t29 -1q45 0 90 2l90 4q78 0 133 -17.5t94 -66.5q29 -43 44.5 -89t15.5 -93q0 -14 -3.5 -32t-5.5 -28l-10 -8q-57 8 -84.5 9t-42.5 1q-111 0 -219 -32q-4 4 -5 12 t-1 14v41t2 41q0 37 -9 59.5t-34 38t-53.5 21.5t-53.5 6q-57 0 -119.5 -22.5t-113.5 -57.5q-43 -37 -67.5 -80t-24.5 -94q0 -20 2 -31q0 -23 16.5 -43t42.5 -39q45 -23 96.5 -30.5t106.5 -7.5q63 0 193.5 12t148.5 12q72 -12 130 -57t89 -113q29 -86 29 -168 q0 -233 -128 -339.5t-222.5 -135.5t-208.5 -29q-72 0 -160 11q-33 0 -111.5 -4.5t-87.5 -4.5q-96 0 -162.5 26t-96 92.5t-29.5 127.5zM416 -322q10 14 22 39t19 33q78 -59 178 -59q113 0 112 71q0 29 -15 41.5t-58 12.5q-39 0 -67 -2t-64 -15q18 29 35.5 63t27.5 54l39 76 l8 16l99 4l-21 -28l-29 -60l-6 -35q23 6 35 8.5t29 2.5q78 0 122 -31t44 -86q0 -74 -74 -124t-189 -50q-111 0 -247 69z" />
<glyph unicode="&#x15f;" horiz-adv-x="1101" d="M55 240q0 27 6 55q10 10 13 10l274 -6q12 -8 12 -20q-4 -25 -8 -48q0 -45 27 -79q49 -43 125 -43q12 0 28.5 2t51 7t90 53t71.5 112q0 51 -22 63q-25 23 -60.5 32t-76.5 9q-25 0 -49.5 -1t-47.5 -1q-59 -6 -78.5 -7t-62.5 -1q-84 0 -147.5 23.5t-102.5 84.5 q-31 43 -30 109q0 51 38.5 128t161.5 111.5t320 34.5q72 20 145 21q90 0 166 -31t94.5 -68.5t27.5 -64.5t9 -43q0 -23 -10 -35q-63 0 -160.5 -5t-114.5 -5q-12 37 -26 60.5t-45 39.5q-47 20 -107 21q-74 0 -125 -39q-20 -18 -41.5 -40t-21.5 -48q0 -23 13.5 -42.5t37 -29.5 t57 -14t74.5 -4q43 0 131 8t129 8q109 0 164 -43t55 -168q0 -100 -63.5 -186t-157.5 -119q-37 -20 -85 -29.5t-99 -9.5h-57.5t-57.5 2q-59 0 -114 -14q-111 0 -191 24.5t-129 98.5q-31 55 -31 127zM293 -322q10 14 22 39t19 33q78 -59 178 -59q113 0 112 71q0 29 -15 41.5 t-58 12.5q-39 0 -67 -2t-64 -15q18 29 35.5 63t27.5 54l39 76l8 16l99 4l-21 -28l-29 -60l-6 -35q23 6 35 8.5t29 2.5q78 0 122 -31t44 -86q0 -74 -74 -124t-189 -50q-111 0 -247 69z" />
<glyph unicode="&#x160;" horiz-adv-x="1351" d="M68 221q0 94 51 164q119 12 199.5 20.5t144.5 24.5q-4 -29 -22.5 -74t-23.5 -65.5t-5 -40.5q0 -68 56 -113t136 -45q12 0 76.5 13.5t147.5 96.5t94.5 148.5t11.5 95.5q0 41 -15.5 75t-44 48.5t-48 16.5t-48.5 2q-37 0 -55 4q-31 0 -97.5 -2t-101.5 -2q-147 0 -244.5 31.5 t-160.5 134.5q-31 59 -31 137q0 76 29.5 150.5t91 149.5t158 106.5t211.5 31.5q37 0 79.5 -4t68.5 -7t42 -4t29 -1q45 0 90 2l90 4q78 0 133 -17.5t94 -66.5q29 -43 44.5 -89t15.5 -93q0 -14 -3.5 -32t-5.5 -28l-10 -8q-57 8 -84.5 9t-42.5 1q-111 0 -219 -32q-4 4 -5 12 t-1 14v41t2 41q0 37 -9 59.5t-34 38t-53.5 21.5t-53.5 6q-57 0 -119.5 -22.5t-113.5 -57.5q-43 -37 -67.5 -80t-24.5 -94q0 -20 2 -31q0 -23 16.5 -43t42.5 -39q45 -23 96.5 -30.5t106.5 -7.5q63 0 193.5 12t148.5 12q72 -12 130 -57t89 -113q29 -86 29 -168 q0 -233 -128 -339.5t-222.5 -135.5t-208.5 -29q-72 0 -160 11q-33 0 -111.5 -4.5t-87.5 -4.5q-96 0 -162.5 26t-96 92.5t-29.5 127.5zM401 1698v23q66 27 131 53q39 -31 94.5 -60.5t122.5 -60.5q135 59 217 121q31 -6 77 -28.5t55 -24.5v-23q-33 -47 -177.5 -140t-171.5 -93 q-31 0 -172 93t-176 140z" />
<glyph unicode="&#x161;" horiz-adv-x="1101" d="M55 240q0 27 6 55q10 10 13 10l274 -6q12 -8 12 -20q-4 -25 -8 -48q0 -45 27 -79q49 -43 125 -43q12 0 28.5 2t51 7t90 53t71.5 112q0 51 -22 63q-25 23 -60.5 32t-76.5 9q-25 0 -49.5 -1t-47.5 -1q-59 -6 -78.5 -7t-62.5 -1q-84 0 -147.5 23.5t-102.5 84.5 q-31 43 -30 109q0 51 38.5 128t161.5 111.5t320 34.5q72 20 145 21q90 0 166 -31t94.5 -68.5t27.5 -64.5t9 -43q0 -23 -10 -35q-63 0 -160.5 -5t-114.5 -5q-12 37 -26 60.5t-45 39.5q-47 20 -107 21q-74 0 -125 -39q-20 -18 -41.5 -40t-21.5 -48q0 -23 13.5 -42.5t37 -29.5 t57 -14t74.5 -4q43 0 131 8t129 8q109 0 164 -43t55 -168q0 -100 -63.5 -186t-157.5 -119q-37 -20 -85 -29.5t-99 -9.5h-57.5t-57.5 2q-59 0 -114 -14q-111 0 -191 24.5t-129 98.5q-31 55 -31 127zM229 1188v23q66 27 131 53q39 -31 94.5 -60.5t122.5 -60.5q135 59 217 121 q31 -6 77 -28.5t55 -24.5v-23q-33 -47 -177.5 -140t-171.5 -93q-31 0 -172 93t-176 140z" />
<glyph unicode="&#x162;" horiz-adv-x="1386" d="M45 1059q-6 14 0 31q33 111 68 221q109 0 336 -6.5t342 -6.5q217 0 407 21q16 -4 40 -1t46 7q37 0 33 -33q-4 -59 -7 -98t-14 -80l-10 -8h-101t-102 2q-49 0 -100 -2t-77.5 -6t-30 -9.5t-19.5 -146.5t-16 -436q0 -266 30 -516h-350l-4 10q0 104 7 323.5t7 303.5 q0 141 -7 241.5t-27 219.5q-8 12 -17 16q-133 0 -236.5 -9.5t-197.5 -37.5zM424 -322q10 14 22 39t19 33q78 -59 178 -59q113 0 112 71q0 29 -15 41.5t-58 12.5q-39 0 -67 -2t-64 -15q18 29 35.5 63t27.5 54l39 76l8 16l99 4l-21 -28l-29 -60l-6 -35q23 6 35 8.5t29 2.5 q78 0 122 -31t44 -86q0 -74 -74 -124t-189 -50q-111 0 -247 69z" />
<glyph unicode="&#x163;" horiz-adv-x="1003" d="M82 676q4 55 7 92t15 68q23 4 47.5 4h38.5h33q12 0 28.5 2t24.5 2q53 86 88 140t80 112q16 12 23 12q98 12 224 20.5t237 14.5q-147 -141 -293 -283q6 -10 22 -10q55 0 181.5 4t132.5 4q10 -8 0 -18l-78 -168l-10 -8q-61 0 -196.5 4t-147.5 4q-20 2 -29.5 -17.5 t-17.5 -38.5q-23 -90 -23 -180q0 -92 23.5 -170t67.5 -123t87 -45q14 0 44 8.5t62.5 24.5t198.5 111q-14 -57 -43 -146q-23 -59 -30 -88l-17 -12h-473q-45 8 -82 34.5t-85 112.5t-48 265q0 125 35 239q-10 25 -49 25q-35 -2 -70 -2zM275 -322q10 14 22 39t19 33 q78 -59 178 -59q113 0 112 71q0 29 -15 41.5t-58 12.5q-39 0 -67 -2t-64 -15q18 29 35.5 63t27.5 54l39 76l8 16l99 4l-21 -28l-29 -60l-6 -35q23 6 35 8.5t29 2.5q78 0 122 -31t44 -86q0 -74 -74 -124t-189 -50q-111 0 -247 69z" />
<glyph unicode="&#x164;" horiz-adv-x="1386" d="M45 1059q-6 14 0 31q33 111 68 221q109 0 336 -6.5t342 -6.5q217 0 407 21q16 -4 40 -1t46 7q37 0 33 -33q-4 -59 -7 -98t-14 -80l-10 -8h-101t-102 2q-49 0 -100 -2t-77.5 -6t-30 -9.5t-19.5 -146.5t-16 -436q0 -266 30 -516h-350l-4 10q0 104 7 323.5t7 303.5 q0 141 -7 241.5t-27 219.5q-8 12 -17 16q-133 0 -236.5 -9.5t-197.5 -37.5zM332 1655v23q66 27 131 53q39 -31 94.5 -60.5t122.5 -60.5q135 59 217 121q31 -6 77 -28.5t55 -24.5v-23q-33 -47 -177.5 -140t-171.5 -93q-31 0 -172 93t-176 140z" />
<glyph unicode="&#x165;" horiz-adv-x="1310" d="M0 676q4 55 7 92t16 68q23 4 47 4h39h32q12 0 28.5 2t25.5 2q53 86 87.5 140t79.5 112q16 12 23 12q98 12 224 20.5t237 14.5q-147 -141 -293 -283q6 -10 22 -10q55 0 181.5 4t132.5 4q10 -8 0 -18l-78 -168l-10 -8q-61 0 -196.5 4t-147.5 4q-20 2 -29.5 -17.5 t-17.5 -38.5q-23 -90 -23 -180q0 -92 23.5 -170t67.5 -123t87 -45q14 0 44 8.5t63 24.5t198 111q-14 -57 -43 -146q-23 -59 -30 -88l-17 -12h-473q-45 8 -82 34.5t-85 112.5t-48 265q0 125 35 239q-10 25 -49 25q-35 -2 -70 -2zM938 862v8q49 66 82 113t33 96q0 16 -6 35 q-14 23 -53.5 73t-55.5 77h8h213q100 -53 101 -164q-1 -29 -5 -45q-12 -55 -46.5 -102.5t-88.5 -90.5q-14 -2 -32.5 -3t-28.5 -1q-16 0 -55 2t-66 2z" />
<glyph unicode="&#x166;" horiz-adv-x="1386" d="M45 1059q-6 14 0 31q33 111 68 221q109 0 336 -6.5t342 -6.5q217 0 407 21q16 -4 40 -1t46 7q37 0 33 -33q-4 -59 -7 -98t-14 -80l-10 -8h-101t-102 2q-49 0 -100 -2t-77.5 -6t-30 -9.5t-19.5 -146.5t-16 -436q0 -266 30 -516h-350l-4 10q0 104 7 323.5t7 303.5 q0 141 -7 241.5t-27 219.5q-8 12 -17 16q-133 0 -236.5 -9.5t-197.5 -37.5zM392 602v115h575v-115h-575z" />
<glyph unicode="&#x167;" horiz-adv-x="1003" d="M82 676q4 55 7 92t15 68q23 4 47.5 4h38.5h33q12 0 28.5 2t24.5 2q53 86 88 140t80 112q16 12 23 12q98 12 224 20.5t237 14.5q-147 -141 -293 -283q6 -10 22 -10q55 0 181.5 4t132.5 4q10 -8 0 -18l-78 -168l-10 -8q-61 0 -196.5 4t-147.5 4q-20 2 -29.5 -17.5 t-17.5 -38.5q-23 -90 -23 -180q0 -92 23.5 -170t67.5 -123t87 -45q14 0 44 8.5t62.5 24.5t198.5 111q-14 -57 -43 -146q-23 -59 -30 -88l-17 -12h-473q-45 8 -82 34.5t-85 112.5t-48 265q0 125 35 239q-10 25 -49 25q-35 -2 -70 -2zM242 397v115h575v-115h-575z" />
<glyph unicode="&#x168;" horiz-adv-x="1515" d="M84 1288l8 4q94 0 188.5 2t186.5 4l6 -10q-20 -102 -29.5 -236t-9.5 -274q0 -66 2 -199t2 -198q12 -86 46 -150.5t106 -85.5q41 -8 92 -8q170 0 263 108.5t124 242t31 311.5q0 63 -4 207.5t-4 146.5q0 27 -9.5 78t-9.5 59q84 0 170 2t174 4l6 -22q-25 -102 -35 -225 t-10 -244q0 -109 11.5 -359.5t11.5 -322.5q17 -58 33 -115l-336 -20q-6 10 -6 37v30q0 29 -11 45q-29 0 -90 -18.5t-77.5 -20.5t-197.5 -52t-286 -50q-137 0 -223 88q-25 29 -40 73t-22 93q0 195 -3 332t-6 332.5t-3 267.5q-10 23 -24.5 69t-24.5 74zM421 1552v22 q39 53 114 106.5t124 53.5t130 -26.5t165 -55.5q37 0 70.5 31t48.5 35q8 -2 16 -2q6 -23 28.5 -63t28.5 -56q-49 -39 -96 -68.5t-96 -29.5q-29 0 -140.5 44t-158.5 44q-29 0 -53.5 -30t-48.5 -58q-35 18 -66 30.5t-66 22.5z" />
<glyph unicode="&#x169;" horiz-adv-x="1261" d="M55 350v31q4 23 10.5 65.5t38 109.5t84.5 134q2 6 -3 11.5t-13 9.5q-16 2 -42 0t-48 -2q-18 0 -27 2q8 39 17.5 67.5t33.5 79.5h48h41h36h31h29h24h75t77 2h20q45 0 115 3t72 3q51 0 100 -6l-262 -192q-145 -131 -145 -275q0 -23 7 -65.5t41 -97t72.5 -73t60 -20.5 t23.5 -2q53 0 103.5 31t105.5 84q72 78 96.5 184.5t24.5 251.5v23q0 35 -1 69.5t-1 71.5v20l10 4h314l10 -4q-2 -29 -40 -293t-38 -352q0 -80 9.5 -135t15.5 -82h-312q-4 6 -6 27.5t-10 30.5q-45 -10 -157.5 -22.5t-149.5 -20.5q-82 -31 -170 -31q-55 0 -97 11t-132.5 83 t-90.5 264zM305 1081v22q39 53 114 106.5t124 53.5t130 -26.5t165 -55.5q37 0 70.5 31t48.5 35q8 -2 16 -2q6 -23 28.5 -63t28.5 -56q-49 -39 -96 -68.5t-96 -29.5q-29 0 -140.5 44t-158.5 44q-29 0 -53.5 -30t-48.5 -58q-35 18 -66 30.5t-66 22.5z" />
<glyph unicode="&#x16a;" horiz-adv-x="1515" d="M84 1288l8 4q94 0 188.5 2t186.5 4l6 -10q-20 -102 -29.5 -236t-9.5 -274q0 -66 2 -199t2 -198q12 -86 46 -150.5t106 -85.5q41 -8 92 -8q170 0 263 108.5t124 242t31 311.5q0 63 -4 207.5t-4 146.5q0 27 -9.5 78t-9.5 59q84 0 170 2t174 4l6 -22q-25 -102 -35 -225 t-10 -244q0 -109 11.5 -359.5t11.5 -322.5q17 -58 33 -115l-336 -20q-6 10 -6 37v30q0 29 -11 45q-29 0 -90 -18.5t-77.5 -20.5t-197.5 -52t-286 -50q-137 0 -223 88q-25 29 -40 73t-22 93q0 195 -3 332t-6 332.5t-3 267.5q-10 23 -24.5 69t-24.5 74zM442 1446q-2 2 0 14 q47 104 94 211q47 -10 112.5 -14.5t139.5 -4.5q96 0 196.5 5.5t157.5 9.5v-19l-84 -202q-8 0 -12 -9q-66 10 -118 12.5t-140 2.5q-84 0 -214 -3t-132 -3z" />
<glyph unicode="&#x16b;" horiz-adv-x="1261" d="M55 350v31q4 23 10.5 65.5t38 109.5t84.5 134q2 6 -3 11.5t-13 9.5q-16 2 -42 0t-48 -2q-18 0 -27 2q8 39 17.5 67.5t33.5 79.5h48h41h36h31h29h24h75t77 2h20q45 0 115 3t72 3q51 0 100 -6l-262 -192q-145 -131 -145 -275q0 -23 7 -65.5t41 -97t72.5 -73t60 -20.5 t23.5 -2q53 0 103.5 31t105.5 84q72 78 96.5 184.5t24.5 251.5v23q0 35 -1 69.5t-1 71.5v20l10 4h314l10 -4q-2 -29 -40 -293t-38 -352q0 -80 9.5 -135t15.5 -82h-312q-4 6 -6 27.5t-10 30.5q-45 -10 -157.5 -22.5t-149.5 -20.5q-82 -31 -170 -31q-55 0 -97 11t-132.5 83 t-90.5 264zM385 1020q-2 2 0 14q47 104 94 211q47 -10 112.5 -14.5t139.5 -4.5q96 0 196.5 5.5t157.5 9.5v-19l-84 -202q-8 0 -12 -9q-66 10 -118 12.5t-140 2.5q-84 0 -214 -3t-132 -3z" />
<glyph unicode="&#x16c;" horiz-adv-x="1515" d="M84 1288l8 4q94 0 188.5 2t186.5 4l6 -10q-20 -102 -29.5 -236t-9.5 -274q0 -66 2 -199t2 -198q12 -86 46 -150.5t106 -85.5q41 -8 92 -8q170 0 263 108.5t124 242t31 311.5q0 63 -4 207.5t-4 146.5q0 27 -9.5 78t-9.5 59q84 0 170 2t174 4l6 -22q-25 -102 -35 -225 t-10 -244q0 -109 11.5 -359.5t11.5 -322.5q17 -58 33 -115l-336 -20q-6 10 -6 37v30q0 29 -11 45q-29 0 -90 -18.5t-77.5 -20.5t-197.5 -52t-286 -50q-137 0 -223 88q-25 29 -40 73t-22 93q0 195 -3 332t-6 332.5t-3 267.5q-10 23 -24.5 69t-24.5 74zM446 1671v23 q66 27 131 53q47 -39 102.5 -90t114.5 -72q72 20 127.5 75.5t89.5 86.5q31 -6 77 -28.5t55 -24.5v-23q-57 -80 -150.5 -156.5t-198.5 -76.5q-82 0 -173 59.5t-175 173.5z" />
<glyph unicode="&#x16d;" horiz-adv-x="1261" d="M55 350v31q4 23 10.5 65.5t38 109.5t84.5 134q2 6 -3 11.5t-13 9.5q-16 2 -42 0t-48 -2q-18 0 -27 2q8 39 17.5 67.5t33.5 79.5h48h41h36h31h29h24h75t77 2h20q45 0 115 3t72 3q51 0 100 -6l-262 -192q-145 -131 -145 -275q0 -23 7 -65.5t41 -97t72.5 -73t60 -20.5 t23.5 -2q53 0 103.5 31t105.5 84q72 78 96.5 184.5t24.5 251.5v23q0 35 -1 69.5t-1 71.5v20l10 4h314l10 -4q-2 -29 -40 -293t-38 -352q0 -80 9.5 -135t15.5 -82h-312q-4 6 -6 27.5t-10 30.5q-45 -10 -157.5 -22.5t-149.5 -20.5q-82 -31 -170 -31q-55 0 -97 11t-132.5 83 t-90.5 264zM356 1263v23q66 27 131 53q47 -39 102.5 -90t114.5 -72q72 20 127.5 75.5t89.5 86.5q31 -6 77 -28.5t55 -24.5v-23q-57 -80 -150.5 -156.5t-198.5 -76.5q-82 0 -173 59.5t-175 173.5z" />
<glyph unicode="&#x16e;" horiz-adv-x="1515" d="M84 1288l8 4q94 0 188.5 2t186.5 4l6 -10q-20 -102 -29.5 -236t-9.5 -274q0 -66 2 -199t2 -198q12 -86 46 -150.5t106 -85.5q41 -8 92 -8q170 0 263 108.5t124 242t31 311.5q0 63 -4 207.5t-4 146.5q0 27 -9.5 78t-9.5 59q84 0 170 2t174 4l6 -22q-25 -102 -35 -225 t-10 -244q0 -109 11.5 -359.5t11.5 -322.5q17 -58 33 -115l-336 -20q-6 10 -6 37v30q0 29 -11 45q-29 0 -90 -18.5t-77.5 -20.5t-197.5 -52t-286 -50q-137 0 -223 88q-25 29 -40 73t-22 93q0 195 -3 332t-6 332.5t-3 267.5q-10 23 -24.5 69t-24.5 74zM566 1569 q0 86 61.5 149.5t149.5 63.5q90 0 151.5 -61.5t61.5 -151.5q0 -88 -61.5 -149.5t-151.5 -61.5q-88 0 -149.5 61.5t-61.5 149.5zM666 1569q0 -47 31.5 -79t79.5 -32q47 0 77.5 31t30.5 80q0 47 -30.5 77.5t-77.5 30.5q-45 0 -78 -30.5t-33 -77.5z" />
<glyph unicode="&#x16f;" horiz-adv-x="1261" d="M55 350v31q4 23 10.5 65.5t38 109.5t84.5 134q2 6 -3 11.5t-13 9.5q-16 2 -42 0t-48 -2q-18 0 -27 2q8 39 17.5 67.5t33.5 79.5h48h41h36h31h29h24h75t77 2h20q45 0 115 3t72 3q51 0 100 -6l-262 -192q-145 -131 -145 -275q0 -23 7 -65.5t41 -97t72.5 -73t60 -20.5 t23.5 -2q53 0 103.5 31t105.5 84q72 78 96.5 184.5t24.5 251.5v23q0 35 -1 69.5t-1 71.5v20l10 4h314l10 -4q-2 -29 -40 -293t-38 -352q0 -80 9.5 -135t15.5 -82h-312q-4 6 -6 27.5t-10 30.5q-45 -10 -157.5 -22.5t-149.5 -20.5q-82 -31 -170 -31q-55 0 -97 11t-132.5 83 t-90.5 264zM492 1209q0 86 61.5 149.5t149.5 63.5q90 0 151.5 -61.5t61.5 -151.5q0 -88 -61.5 -149.5t-151.5 -61.5q-88 0 -149.5 61.5t-61.5 149.5zM592 1209q0 -47 31.5 -79t79.5 -32q47 0 77.5 31t30.5 80q0 47 -30.5 77.5t-77.5 30.5q-45 0 -78 -30.5t-33 -77.5z" />
<glyph unicode="&#x170;" horiz-adv-x="1515" d="M84 1288l8 4q94 0 188.5 2t186.5 4l6 -10q-20 -102 -29.5 -236t-9.5 -274q0 -66 2 -199t2 -198q12 -86 46 -150.5t106 -85.5q41 -8 92 -8q170 0 263 108.5t124 242t31 311.5q0 63 -4 207.5t-4 146.5q0 27 -9.5 78t-9.5 59q84 0 170 2t174 4l6 -22q-25 -102 -35 -225 t-10 -244q0 -109 11.5 -359.5t11.5 -322.5q17 -58 33 -115l-336 -20q-6 10 -6 37v30q0 29 -11 45q-29 0 -90 -18.5t-77.5 -20.5t-197.5 -52t-286 -50q-137 0 -223 88q-25 29 -40 73t-22 93q0 195 -3 332t-6 332.5t-3 267.5q-10 23 -24.5 69t-24.5 74zM440 1420 q147 223 172 262t60 100q39 -35 64.5 -51.5t115.5 -71.5l-18 -26l-39 -64q-176 -176 -203 -227q-74 59 -123 65zM770 1418q147 223 172 262t59 100q39 -35 65 -51.5t116 -71.5l-19 -26l-39 -64q-176 -176 -202 -227q-74 59 -123 65z" />
<glyph unicode="&#x171;" horiz-adv-x="1261" d="M55 350v31q4 23 10.5 65.5t38 109.5t84.5 134q2 6 -3 11.5t-13 9.5q-16 2 -42 0t-48 -2q-18 0 -27 2q8 39 17.5 67.5t33.5 79.5h48h41h36h31h29h24h75t77 2h20q45 0 115 3t72 3q51 0 100 -6l-262 -192q-145 -131 -145 -275q0 -23 7 -65.5t41 -97t72.5 -73t60 -20.5 t23.5 -2q53 0 103.5 31t105.5 84q72 78 96.5 184.5t24.5 251.5v23q0 35 -1 69.5t-1 71.5v20l10 4h314l10 -4q-2 -29 -40 -293t-38 -352q0 -80 9.5 -135t15.5 -82h-312q-4 6 -6 27.5t-10 30.5q-45 -10 -157.5 -22.5t-149.5 -20.5q-82 -31 -170 -31q-55 0 -97 11t-132.5 83 t-90.5 264zM342 1002q147 223 172 262t60 100q39 -35 64.5 -51.5t115.5 -71.5l-18 -26l-39 -64q-176 -176 -203 -227q-74 59 -123 65zM672 1000q147 223 172 262t59 100q39 -35 65 -51.5t116 -71.5l-19 -26l-39 -64q-176 -176 -202 -227q-74 59 -123 65z" />
<glyph unicode="&#x172;" horiz-adv-x="1515" d="M84 1288l8 4q94 0 188.5 2t186.5 4l6 -10q-20 -102 -29.5 -236t-9.5 -274q0 -66 2 -199t2 -198q12 -86 46 -150.5t106 -85.5q41 -8 92 -8q170 0 263 108.5t124 242t31 311.5q0 63 -4 207.5t-4 146.5q0 27 -9.5 78t-9.5 59q84 0 170 2t174 4l6 -22q-25 -102 -35 -225 t-10 -244q0 -109 11.5 -359.5t11.5 -322.5q17 -58 33 -115l-336 -20q-6 10 -6 37v30q0 29 -11 45q-29 0 -90 -18.5t-77.5 -20.5t-197.5 -52t-286 -50q-137 0 -223 88q-25 29 -40 73t-22 93q0 195 -3 332t-6 332.5t-3 267.5q-10 23 -24.5 69t-24.5 74zM790 -151 q0 68 46 141.5t132 132.5h115q-74 -76 -93.5 -99.5t-19.5 -72.5q0 -39 24.5 -63.5t61.5 -24.5q23 0 57.5 14.5t63.5 34.5q6 -12 8 -45t6 -45q-78 -59 -133 -83.5t-104 -24.5q-66 0 -115 37.5t-49 97.5z" />
<glyph unicode="&#x173;" horiz-adv-x="1261" d="M55 350v31q4 23 10.5 65.5t38 109.5t84.5 134q2 6 -3 11.5t-13 9.5q-16 2 -42 0t-48 -2q-18 0 -27 2q8 39 17.5 67.5t33.5 79.5h48h41h36h31h29h24h75t77 2h20q45 0 115 3t72 3q51 0 100 -6l-262 -192q-145 -131 -145 -275q0 -23 7 -65.5t41 -97t72.5 -73t60 -20.5 t23.5 -2q53 0 103.5 31t105.5 84q72 78 96.5 184.5t24.5 251.5v23q0 35 -1 69.5t-1 71.5v20l10 4h314l10 -4q-2 -29 -40 -293t-38 -352q0 -80 9.5 -135t15.5 -82h-312q-4 6 -6 27.5t-10 30.5q-45 -10 -157.5 -22.5t-149.5 -20.5q-82 -31 -170 -31q-55 0 -97 11t-132.5 83 t-90.5 264zM831 -266q0 68 46 141.5t132 132.5h115q-74 -76 -93.5 -99.5t-19.5 -72.5q0 -39 24.5 -63.5t61.5 -24.5q23 0 57.5 14.5t63.5 34.5q6 -12 8 -45t6 -45q-78 -59 -133 -83.5t-104 -24.5q-66 0 -115 37.5t-49 97.5z" />
<glyph unicode="&#x174;" horiz-adv-x="2445" d="M14 1286q33 4 73 6t122 2h47q80 0 147 9q12 -4 14.5 -27t10.5 -33q84 -379 242 -811q10 -18 22 0q31 66 163 367t149.5 339t21.5 89t12 71h353q16 -8 19 -38.5t24.5 -104.5t73 -219t104.5 -272t133 -306q12 0 17 9.5t12 17.5l346 907q8 6 26 6h88t99 2q84 0 96 -2l16 -12 q-23 -33 -89 -144.5t-111 -218t-107.5 -258t-98.5 -243.5t-91 -252q-8 -16 -9 -39q0 -27 19.5 -72t21.5 -51q-92 0 -238.5 -5t-185.5 -5q-12 20 -30.5 83.5t-56 162t-116.5 301.5t-165 373q-4 14 -17.5 5.5t-13.5 -14.5q-102 -219 -136 -292.5t-76 -171t-79 -186.5 t-44 -144.5t-13 -106.5l-10 -10h-330q-8 23 -17.5 75t-19.5 111q-55 197 -129 413t-125 353t-88 207q-51 88 -76 129zM882 1507v23q33 45 176.5 139t171.5 94q29 0 171.5 -92t177.5 -141v-23q-66 -27 -132 -53q-39 29 -96 61.5t-121 59.5q-72 -33 -121 -59.5t-96 -61.5 q-31 6 -77 28.5t-54 24.5z" />
<glyph unicode="&#x175;" horiz-adv-x="1953" d="M43 293q0 47 6 90q39 158 174 289q0 8 -5 12t-7 6h-139q6 35 19 69t31.5 64.5t26 31.5t13.5 1h74q178 0 270 3t223 15q-123 -117 -244 -233q-133 -145 -133 -287q0 -31 6 -61q6 -63 42 -115.5t96 -66.5q113 0 198.5 97t118.5 187t44 162t11 141q0 59 -4 93t-4 51 q33 -2 57.5 -3t40.5 -1q43 0 145.5 4t108.5 4q-12 -51 -40.5 -129t-40 -129t-11.5 -129q0 -90 24.5 -161t84.5 -124q43 -23 64.5 -32t54.5 -5q109 41 185.5 148.5t94.5 226.5q0 51 -11 94t-38 80q-39 35 -76 49.5t-198 52.5q104 55 204.5 87t210.5 32q8 -2 16.5 -2h10.5 q8 0 25.5 -15.5t66.5 -64.5q39 -43 58.5 -104.5t19.5 -128.5q0 -105 -35 -209q-66 -154 -212 -252t-316 -98q-57 -18 -114.5 -31.5t-109.5 -13.5q-88 0 -149 39q-16 14 -41 46.5l-35 45.5q-82 -43 -119.5 -61.5t-89.5 -30.5q-55 0 -189 -23.5t-181 -23.5q-43 0 -81 6t-73 24 q-68 43 -98.5 117t-30.5 166zM633 1157v23q33 45 176.5 139t171.5 94q29 0 171.5 -92t177.5 -141v-23q-66 -27 -132 -53q-39 29 -96 61.5t-121 59.5q-72 -33 -121 -59.5t-96 -61.5q-31 6 -77 28.5t-54 24.5z" />
<glyph unicode="&#x176;" horiz-adv-x="1275" d="M4 1294h199.5h140.5q145 -311 291 -622q16 -10 18 -10q14 20 105.5 185t220.5 447h285q0 -4 2 -8q-8 -18 -51.5 -79.5t-124 -204t-131 -244t-150.5 -322.5q-16 -29 -22.5 -63.5t-6.5 -77.5q0 -31 4 -86t4 -80q8 -20 11.5 -70.5t3.5 -52.5q-78 -6 -156 -6h-22h-71t-71 2 h-18l-8 8q0 41 4 121t4 121q0 61 -5 99t-22 89q-80 201 -183 401.5t-226 399.5q0 10 -16.5 25.5t-8.5 27.5zM284 1464v23q33 45 176.5 139t171.5 94q29 0 171.5 -92t177.5 -141v-23q-66 -27 -132 -53q-39 29 -96 61.5t-121 59.5q-72 -33 -121 -59.5t-96 -61.5 q-31 6 -77 28.5t-54 24.5z" />
<glyph unicode="&#x177;" horiz-adv-x="1294" d="M-43 -197q0 63 19.5 133t47 119t50 83t51.5 63q106 10 215 22q-8 -25 -45 -69.5t-54.5 -79.5t-31.5 -87.5t-14 -105.5q0 -80 38 -137q43 -55 103 -55q10 0 35 4q90 27 143 106.5t86 190.5q6 12 -12 22q-37 0 -105.5 -9t-76.5 -9q0 100 2 160.5t4 113.5q0 123 -14.5 209 t-59.5 168q-16 12 -47 12q-43 -2 -84 -4q-27 0 -80 -6t-80 -6q29 45 94.5 121t77.5 90q51 0 155.5 2t155.5 2l19 -4q82 -115 115.5 -261.5t33.5 -320.5q8 -12 16.5 -4t45.5 84t110.5 227.5t147.5 264.5q6 18 51 26h201q4 0 10 -8q-88 -168 -182 -351t-164 -344t-121 -339 q-45 -117 -154.5 -167t-261.5 -67q-51 -12 -103 -21t-99 -9q-53 0 -99.5 13t-81.5 44q-29 35 -43 85t-14 99zM270 1054v23q33 45 176.5 139t171.5 94q29 0 171.5 -92t177.5 -141v-23q-66 -27 -132 -53q-39 29 -96 61.5t-121 59.5q-72 -33 -121 -59.5t-96 -61.5 q-31 6 -77 28.5t-54 24.5z" />
<glyph unicode="&#x178;" horiz-adv-x="1275" d="M4 1294h199.5h140.5q145 -311 291 -622q16 -10 18 -10q14 20 105.5 185t220.5 447h285q0 -4 2 -8q-8 -18 -51.5 -79.5t-124 -204t-131 -244t-150.5 -322.5q-16 -29 -22.5 -63.5t-6.5 -77.5q0 -31 4 -86t4 -80q8 -20 11.5 -70.5t3.5 -52.5q-78 -6 -156 -6h-22h-71t-71 2 h-18l-8 8q0 41 4 121t4 121q0 61 -5 99t-22 89q-80 201 -183 401.5t-226 399.5q0 10 -16.5 25.5t-8.5 27.5zM205 1530q-6 8 7 19.5t34.5 34t57.5 60t83 82.5q35 -12 80 -35.5t68 -35.5q6 -8 28.5 -16.5t28.5 -24.5q-43 -43 -122 -106.5t-95 -77.5q-41 14 -85 42.5t-85 57.5z M666 1530q-6 8 7 19.5t34.5 34t57.5 60t83 82.5q35 -12 80 -35.5t67 -35.5q6 -8 29 -16.5t29 -24.5q-43 -43 -122 -106.5t-95 -77.5q-41 14 -85 42.5t-85 57.5z" />
<glyph unicode="&#x179;" horiz-adv-x="1406" d="M37 -8q174 223 307 400t240.5 333t224.5 356q0 25 -10 29q-96 0 -335 -22.5t-341 -22.5q-6 10 0 16l143 211q86 0 256 -6t258 -6t299 15.5t289 15.5q4 -5 0 -15q-47 -66 -245.5 -328.5t-301 -414.5t-194.5 -334q-6 -25 22 -24q113 0 369 20.5t344 20.5q4 -14 0 -17 q-59 -115 -117 -227l-20 -8q-197 0 -393.5 1l-393 2t-391.5 1q-6 0 -10 4zM538 1472q-4 4 0 13q39 55 142.5 124.5t197.5 121.5q53 -16 91 -38t53.5 -37.5t15.5 -39.5q0 -17 -2 -23q-143 -57 -221 -93t-146 -87q-29 6 -74 30.5t-57 28.5z" />
<glyph unicode="&#x17a;" horiz-adv-x="1198" d="M8 -10l2 14q70 74 213.5 217.5t231.5 242.5t157 208q4 10 -18 20q-100 0 -227 -17.5t-244 -33.5v12q39 66 64.5 108t54.5 81q84 12 165.5 17t188.5 5q47 0 146.5 -2t152.5 -2q25 8 52.5 10t68.5 2q63 0 97 -3t50 -7q-203 -152 -333 -308.5t-259 -379.5q16 -16 19 -16 q27 -4 52.5 -4h51.5q102 0 188.5 10t239.5 37q-12 -47 -46 -105.5t-64 -113.5l-13 -9q-109 0 -362.5 18.5t-349.5 18.5q-76 0 -144.5 -4t-134.5 -16zM420 1017q-4 4 0 13q39 55 142.5 124.5t197.5 121.5q53 -16 91 -38t53.5 -37.5t15.5 -39.5q0 -17 -2 -23 q-143 -57 -221 -93t-146 -87q-29 6 -74 30.5t-57 28.5z" />
<glyph unicode="&#x17b;" horiz-adv-x="1406" d="M37 -8q174 223 307 400t240.5 333t224.5 356q0 25 -10 29q-96 0 -335 -22.5t-341 -22.5q-6 10 0 16l143 211q86 0 256 -6t258 -6t299 15.5t289 15.5q4 -5 0 -15q-47 -66 -245.5 -328.5t-301 -414.5t-194.5 -334q-6 -25 22 -24q113 0 369 20.5t344 20.5q4 -14 0 -17 q-59 -115 -117 -227l-20 -8q-197 0 -393.5 1l-393 2t-391.5 1q-6 0 -10 4zM569 1554q41 35 68.5 63.5t66.5 74.5q27 -35 45 -54t86 -80l-20 -18l-43 -47q-37 -33 -68 -72q-53 63 -113 117z" />
<glyph unicode="&#x17c;" horiz-adv-x="1198" d="M8 -10l2 14q70 74 213.5 217.5t231.5 242.5t157 208q4 10 -18 20q-100 0 -227 -17.5t-244 -33.5v12q39 66 64.5 108t54.5 81q84 12 165.5 17t188.5 5q47 0 146.5 -2t152.5 -2q25 8 52.5 10t68.5 2q63 0 97 -3t50 -7q-203 -152 -333 -308.5t-259 -379.5q16 -16 19 -16 q27 -4 52.5 -4h51.5q102 0 188.5 10t239.5 37q-12 -47 -46 -105.5t-64 -113.5l-13 -9q-109 0 -362.5 18.5t-349.5 18.5q-76 0 -144.5 -4t-134.5 -16zM453 1104q41 35 68.5 63.5t66.5 74.5q27 -35 45 -54t86 -80l-20 -18l-43 -47q-37 -33 -68 -72q-53 63 -113 117z" />
<glyph unicode="&#x17d;" horiz-adv-x="1406" d="M37 -8q174 223 307 400t240.5 333t224.5 356q0 25 -10 29q-96 0 -335 -22.5t-341 -22.5q-6 10 0 16l143 211q86 0 256 -6t258 -6t299 15.5t289 15.5q4 -5 0 -15q-47 -66 -245.5 -328.5t-301 -414.5t-194.5 -334q-6 -25 22 -24q113 0 369 20.5t344 20.5q4 -14 0 -17 q-59 -115 -117 -227l-20 -8q-197 0 -393.5 1l-393 2t-391.5 1q-6 0 -10 4zM493 1698v23q66 27 131 53q39 -31 94.5 -60.5t122.5 -60.5q135 59 217 121q31 -6 77 -28.5t55 -24.5v-23q-33 -47 -177.5 -140t-171.5 -93q-31 0 -172 93t-176 140z" />
<glyph unicode="&#x17e;" horiz-adv-x="1198" d="M8 -10l2 14q70 74 213.5 217.5t231.5 242.5t157 208q4 10 -18 20q-100 0 -227 -17.5t-244 -33.5v12q39 66 64.5 108t54.5 81q84 12 165.5 17t188.5 5q47 0 146.5 -2t152.5 -2q25 8 52.5 10t68.5 2q63 0 97 -3t50 -7q-203 -152 -333 -308.5t-259 -379.5q16 -16 19 -16 q27 -4 52.5 -4h51.5q102 0 188.5 10t239.5 37q-12 -47 -46 -105.5t-64 -113.5l-13 -9q-109 0 -362.5 18.5t-349.5 18.5q-76 0 -144.5 -4t-134.5 -16zM237 1181v23q66 27 131 53q39 -31 94.5 -60.5t122.5 -60.5q135 59 217 121q31 -6 77 -28.5t55 -24.5v-23 q-33 -47 -177.5 -140t-171.5 -93q-31 0 -172 93t-176 140z" />
<glyph unicode="&#x17f;" horiz-adv-x="1075" d="M45 31q0 41 10.5 85t26.5 81q0 6 16 10q18 0 37 -1t37 -1q45 0 64.5 7t19.5 26q0 104 6 331.5t6 337.5q0 37 28 76t60.5 49t67.5 10q41 0 110.5 -18t90.5 -20q80 63 186 63q63 0 106.5 -22.5t79.5 -40.5q39 -27 33 -70q0 -45 -32.5 -87t-55.5 -69q-10 -8 -18.5 -10 t-10.5 10q-51 33 -106 68t-98 47q-74 -8 -98.5 -60.5t-49.5 -121.5q-20 -104 -27.5 -211t-7.5 -250q0 -25 3 -35t22 -14h434q8 -2 6 -11.5t-6 -21.5q-35 -66 -54.5 -100.5t-39.5 -40.5q-63 0 -184 2t-181 2q-4 -4 -8 -9.5t-10 -13.5q-8 -82 -10 -160.5t-2 -183.5v-49 q-20 -2 -29 -6q-63 -8 -133 -18.5t-123 -10.5q-6 0 -9 2t3 58.5t19.5 179.5t13.5 207l-11 12q-33 0 -94 -4t-88 -4z" />
<glyph unicode="&#x192;" horiz-adv-x="1531" d="M-25 -328q8 41 46 80t65 64q10 8 18.5 10t8.5 -10q39 -31 85 -63t83 -44q70 8 101.5 56.5t66.5 113.5q20 49 32 88q-4 2 13 53q8 31 26 95q8 35 17 80l6 -2q6 18 10 36q45 158 59 236l-6 10q-31 0 -88 -4t-82 -4q6 39 23.5 80t40.5 74q0 6 16 10q18 0 34.5 -1t35.5 -1 q41 0 59.5 6t22.5 24q18 96 54 262t56 269q4 35 37 70.5t64.5 45t64.5 9.5q37 0 98.5 -17.5t81.5 -19.5q84 59 183 59q59 0 94 -20.5t65 -38.5q31 -25 19 -64q-8 -41 -46 -79.5t-65 -63.5q-8 -8 -17 -10t-9 10q-39 31 -84 62.5t-84 42.5q-70 -6 -100.5 -54.5t-67.5 -113.5 q-37 -96 -52.5 -150.5t-39.5 -187.5q-4 -23 -3 -32t15 -13h401q8 -2 4 -10.5t-10 -20.5q-43 -59 -67.5 -92t-42.5 -37q-59 0 -171 1t-165 1q-4 -2 -9.5 -7t-13.5 -14q-23 -76 -48.5 -191.5t-43.5 -211.5l-8 -45q-8 -2 -15 -2q-2 -14 -6 -31q-33 -166 -53 -268 q-6 -35 -39 -71t-64.5 -45t-64.5 -9q-37 0 -98.5 17.5t-79.5 19.5q-86 -59 -184 -60q-57 0 -93 20.5t-67 39.5q-31 25 -19 63z" />
<glyph unicode="&#x1fc;" horiz-adv-x="1847" d="M10 12q133 293 240.5 564.5t210.5 572.5q6 35 -20.5 78t-32.5 59q0 4 5 5t5 5q80 0 271.5 -4t203.5 -4q135 0 227 7.5t148.5 18.5t68.5 15q16 0 17 -49q0 -31 7 -96.5t7 -85.5q-10 -4 -18 -8q-82 0 -261.5 4t-191.5 4q-14 -14 -14 -25q14 -59 48 -150.5t64 -170.5 q6 -6 11.5 -9.5t33 -7.5t71.5 -6t101 -2q86 0 153 6t155 19q20 -53 34.5 -109.5t26.5 -107.5q-10 -4 -20 -9q-59 0 -195.5 10.5t-179.5 10.5q-51 0 -101 -6q-14 -14 -12 -17q18 -66 32.5 -105.5t76.5 -174.5q4 -14 15 -27.5t28 -13.5q96 -12 198 -13q78 0 143.5 8.5 t121.5 28.5q12 0 18 -7t14 -38q43 -94 72 -192q-74 0 -231.5 6t-241.5 6q-86 0 -219 -5t-168 -5q-16 33 -32.5 115.5t-31.5 117.5q-31 109 -37 125.5t-32 42.5q-39 6 -104.5 8t-73.5 2q-51 0 -102.5 -1t-100.5 -1q-20 0 -31.5 -18t-37 -108.5t-75.5 -262.5q0 -6 -8 -10h-248 q-4 6 -4 8t-4 2zM471 588q0 -27 8 -27q72 -14 148 -14q49 0 102 6q12 6 17 17.5t-1 17.5q-14 55 -26 91t-52 143.5t-44 109.5q-2 -6 -11 -6q-29 -51 -50 -101.5t-91 -236.5zM682 1523q-4 4 0 13q39 55 142.5 124.5t197.5 121.5q53 -16 91 -38t53.5 -37.5t15.5 -39.5 q0 -17 -2 -23q-143 -57 -221 -93t-146 -87q-29 6 -74 30.5t-57 28.5z" />
<glyph unicode="&#x1fd;" horiz-adv-x="1994" d="M61 391q0 109 45 205q49 125 170 204t263 91q16 -2 30.5 -2h30.5q37 0 115 6t116 6q45 0 86 -6t78 -25q41 -14 103 -14q47 0 83 5t66 13q20 0 54 5.5t40 5.5q61 6 129 12t101 6q74 0 127 -11t92 -37t65 -40q27 -23 59 -83t32 -140q0 -92 -41 -164l-19 -8q-76 10 -138 12 t-165 2q-152 0 -242 -2t-167 -4l-9 -100q0 -49 30 -95.5t96.5 -82t164.5 -35.5q70 0 125 26q70 23 146.5 55.5t218.5 112.5v-18l-152 -297l-16 -10q-80 0 -245 9t-192 9q-43 0 -83.5 -2t-79.5 -8l-297 6q-2 2 4 44t-4 42q-113 -41 -176.5 -60.5t-124.5 -19.5 q-78 -20 -150 -20q-90 0 -165 30.5t-119 94t-64.5 135t-20.5 147.5zM371 385q0 -92 47 -158q25 -43 62.5 -69.5t80.5 -26.5q20 0 68.5 16.5t133.5 72.5t122 122q20 127 20 238q0 49 -92 117.5t-166 68.5q-70 -27 -132 -79t-103 -129t-41 -173zM913 1187q-4 4 0 13 q39 55 142.5 124.5t197.5 121.5q53 -16 91 -38t53.5 -37.5t15.5 -39.5q0 -17 -2 -23q-143 -57 -221 -93t-146 -87q-29 6 -74 30.5t-57 28.5zM1243 602q0 -8 8 -16q31 -6 65 -8.5t79 -2.5q63 0 161.5 5.5t110.5 5.5l19 8q6 16 3 32.5t-10.5 34t-57.5 61.5t-88 51t-60 7 q-57 0 -105.5 -32.5t-97.5 -90.5q-12 -18 -19.5 -31.5t-7.5 -23.5z" />
<glyph unicode="&#x1fe;" horiz-adv-x="1771" d="M-16 -53l229 213q-68 86 -103.5 193.5t-35.5 224.5q0 121 48 261t203.5 267t333.5 154q123 12 179.5 20t102.5 22.5t84 18.5t73 4q160 0 301 -82l47 45q2 2 85 8.5t155 6.5h51q2 -5 6 -7l-201 -170q43 -49 77 -110.5t52.5 -144.5t18.5 -164q0 -115 -33 -223.5 t-121 -229.5t-261 -193.5t-382 -72.5q-117 -27 -227 -27q-84 0 -161 17.5t-143 52.5l-90 -86q-33 -2 -74.5 -3t-91.5 -1q-82 0 -122 6zM391 598q0 -104 41 -209l8 -20l758 688q-47 43 -100.5 65.5t-114.5 38t-106 15.5q-78 0 -146.5 -35t-152.5 -103q-88 -88 -137.5 -202.5 t-49.5 -237.5zM557 219q137 -119 324 -119q250 35 343 171.5t118.5 219t25.5 171.5q0 144 -63 253q-102 -92 -280.5 -257.5t-249 -231.5t-218.5 -207zM672 1523q-4 4 0 13q39 55 142.5 124.5t197.5 121.5q53 -16 91 -38t53.5 -37.5t15.5 -39.5q0 -17 -2 -23 q-143 -57 -221 -93t-146 -87q-29 6 -74 30.5t-57 28.5z" />
<glyph unicode="&#x1ff;" horiz-adv-x="1269" d="M-16 -127q96 90 202 209q-10 10 -21 25.5t-53 76t-42 197.5t71.5 242.5t185 156.5t269.5 76q109 41 219 41h31q20 -4 31 -4l90 113q2 2 85 8t154 6h51q3 -4 7 -6q-104 -86 -209 -191q16 -8 35 -16q12 -12 61 -102.5t49 -219.5q0 -147 -78 -254.5t-186.5 -147.5t-263 -75 t-203.5 -35q-72 0 -131 21l-115 -135q-59 2 -119.5 4t-119.5 10zM348 416q0 -70 27 -125q68 78 185 218t185 222q-25 10 -55.5 14.5t-68.5 4.5q-70 -20 -121 -50t-101.5 -102t-50.5 -182zM450 1046q-4 4 0 13q39 55 142.5 124.5t197.5 121.5q53 -16 91 -38t53.5 -37.5 t15.5 -39.5q0 -17 -2 -23q-143 -57 -221 -93t-146 -87q-29 6 -74 30.5t-57 28.5zM483 168q74 -51 160 -51q49 -6 82 16.5t94 79.5q94 100 94 248q1 74 -26 129q0 6 -9.5 19.5t-9.5 15.5q-96 -109 -209.5 -245t-175.5 -212z" />
<glyph unicode="&#x218;" horiz-adv-x="1351" d="M68 221q0 94 51 164q119 12 199.5 20.5t144.5 24.5q-4 -29 -22.5 -74t-23.5 -65.5t-5 -40.5q0 -68 56 -113t136 -45q12 0 76.5 13.5t147.5 96.5t94.5 148.5t11.5 95.5q0 41 -15.5 75t-44 48.5t-48 16.5t-48.5 2q-37 0 -55 4q-31 0 -97.5 -2t-101.5 -2q-147 0 -244.5 31.5 t-160.5 134.5q-31 59 -31 137q0 76 29.5 150.5t91 149.5t158 106.5t211.5 31.5q37 0 79.5 -4t68.5 -7t42 -4t29 -1q45 0 90 2l90 4q78 0 133 -17.5t94 -66.5q29 -43 44.5 -89t15.5 -93q0 -14 -3.5 -32t-5.5 -28l-10 -8q-57 8 -84.5 9t-42.5 1q-111 0 -219 -32q-4 4 -5 12 t-1 14v41t2 41q0 37 -9 59.5t-34 38t-53.5 21.5t-53.5 6q-57 0 -119.5 -22.5t-113.5 -57.5q-43 -37 -67.5 -80t-24.5 -94q0 -20 2 -31q0 -23 16.5 -43t42.5 -39q45 -23 96.5 -30.5t106.5 -7.5q63 0 193.5 12t148.5 12q72 -12 130 -57t89 -113q29 -86 29 -168 q0 -233 -128 -339.5t-222.5 -135.5t-208.5 -29q-72 0 -160 11q-33 0 -111.5 -4.5t-87.5 -4.5q-96 0 -162.5 26t-96 92.5t-29.5 127.5zM508 -94q14 2 57 4t111 2h49h25q41 -25 62.5 -61.5t21.5 -81.5q-1 -20 -7 -43q-37 -102 -137 -166q-39 -6 -90 -6q-47 0 -86 6v20 q37 39 76 85t33 91q-8 27 -42 66t-73 84z" />
<glyph unicode="&#x219;" horiz-adv-x="1101" d="M55 240q0 27 6 55q10 10 13 10l274 -6q12 -8 12 -20q-4 -25 -8 -48q0 -45 27 -79q49 -43 125 -43q12 0 28.5 2t51 7t90 53t71.5 112q0 51 -22 63q-25 23 -60.5 32t-76.5 9q-25 0 -49.5 -1t-47.5 -1q-59 -6 -78.5 -7t-62.5 -1q-84 0 -147.5 23.5t-102.5 84.5 q-31 43 -30 109q0 51 38.5 128t161.5 111.5t320 34.5q72 20 145 21q90 0 166 -31t94.5 -68.5t27.5 -64.5t9 -43q0 -23 -10 -35q-63 0 -160.5 -5t-114.5 -5q-12 37 -26 60.5t-45 39.5q-47 20 -107 21q-74 0 -125 -39q-20 -18 -41.5 -40t-21.5 -48q0 -23 13.5 -42.5t37 -29.5 t57 -14t74.5 -4q43 0 131 8t129 8q109 0 164 -43t55 -168q0 -100 -63.5 -186t-157.5 -119q-37 -20 -85 -29.5t-99 -9.5h-57.5t-57.5 2q-59 0 -114 -14q-111 0 -191 24.5t-129 98.5q-31 55 -31 127zM412 -86q14 2 57 4t111 2h49h24q41 -25 62.5 -61.5t21.5 -81.5 q0 -20 -6 -43q-37 -102 -137 -166q-39 -6 -90 -6q-47 0 -86 6v20q37 39 75.5 85t32.5 91q-8 27 -41.5 66t-72.5 84z" />
</font>
</defs>
</svg>
